<?xml version="1.0" standalone="no"?>
<!DOCTYPE svg PUBLIC "-//W3C//DTD SVG 1.1//EN" "http://www.w3.org/Graphics/SVG/1.1/DTD/svg11.dtd" >
<svg xmlns="http://www.w3.org/2000/svg" xmlns:xlink="http://www.w3.org/1999/xlink" version="1.1">
<metadata>
Created by FontForge 20161003 at Mon Feb  5 12:14:00 2018
 By www-data
Copyright (c) 2003 The Hoefler Type Foundry, Inc., dba Hoefler &#38; Frere-Jones. All Rights Reserved.
</metadata>
<defs>
<font id="GothaProBla" horiz-adv-x="500" >
  <font-face 
    font-family="GothaProBla"
    font-weight="400"
    font-stretch="normal"
    units-per-em="1000"
    panose-1="2 0 9 3 4 0 0 2 0 4"
    ascent="800"
    descent="-200"
    x-height="541"
    cap-height="700"
    bbox="-73 -173 1260 932"
    underline-thickness="20"
    underline-position="-153"
    unicode-range="U+0020-FB04"
  />
<missing-glyph 
d="M0 0v700h500v-700h-500zM81 49h339l-170 255zM49 96l171 254l-171 254v-508zM450 96v508l-171 -254zM250 395l170 255h-339z" />
    <glyph glyph-name="fi" unicode="fi" horiz-adv-x="704" 
d="M85 0v389h-63v149h63v12q0 94 46 140q47 47 141 47q74 0 124 -15v-134q-35 11 -71 11q-54 0 -54 -51v-13h124v-146h-121v-389h-189zM459 0v541h190v-541h-190zM455 590v140h198v-140h-198z" />
    <glyph glyph-name="fl" unicode="fl" horiz-adv-x="704" 
d="M85 0v389h-63v149h63v12q0 94 46 140q47 47 141 47q74 0 124 -15v-134q-35 11 -71 11q-54 0 -54 -51v-13h124v-146h-121v-389h-189zM459 0v730h190v-730h-190z" />
    <glyph glyph-name="ffi" unicode="ffi" horiz-adv-x="1108" 
d="M85 0v389h-63v149h63v12q0 94 46 140q47 47 141 47q74 0 124 -15v-134q-35 11 -71 11q-54 0 -54 -51v-13h124v-146h-121v-389h-189zM489 0v389h-64v146h64v15q0 94 46 140q46 47 141 47q74 0 124 -15v-134q-35 11 -71 11q-54 0 -54 -51v-13h124v-146h-121v-389h-189z
M863 0v541h190v-541h-190zM859 590v140h198v-140h-198z" />
    <glyph glyph-name="ffl" unicode="ffl" horiz-adv-x="1108" 
d="M85 0v389h-63v149h63v12q0 94 46 140q47 47 141 47q74 0 124 -15v-134q-35 11 -71 11q-54 0 -54 -51v-13h124v-146h-121v-389h-189zM489 0v389h-64v146h64v15q0 94 46 140q46 47 141 47q74 0 124 -15v-134q-35 11 -71 11q-54 0 -54 -51v-13h124v-146h-121v-389h-189z
M863 0v730h190v-730h-190z" />
    <glyph glyph-name=".notdef" 
d="M0 0v700h500v-700h-500zM81 49h339l-170 255zM49 96l171 254l-171 254v-508zM450 96v508l-171 -254zM250 395l170 255h-339z" />
    <glyph glyph-name=".null" horiz-adv-x="0" 
 />
    <glyph glyph-name="nonmarkingreturn" horiz-adv-x="333" 
 />
    <glyph glyph-name="space" unicode=" " horiz-adv-x="277" 
 />
    <glyph glyph-name="exclam" unicode="!" horiz-adv-x="324" 
d="M63 0v170h198v-170h-198zM112 228l-58 387v85h216v-85l-58 -387h-100z" />
    <glyph glyph-name="quotedbl" unicode="&#x22;" horiz-adv-x="537" 
d="M34 341l22 359h204v-5l-127 -354h-99zM290 341l23 359h204v-5l-127 -354h-100z" />
    <glyph glyph-name="numbersign" unicode="#" horiz-adv-x="706" 
d="M84 0l23 135h-78v161h106l19 112h-92v161h120l22 131h145l-23 -131h127l22 131h145l-22 -131h78v-161h-106l-19 -112h92v-161h-119l-24 -135h-145l24 135h-127l-23 -135h-145zM275 292h134l20 120h-133z" />
    <glyph glyph-name="dollar" unicode="$" horiz-adv-x="666" 
d="M295 -98v100q-154 16 -270 99l90 133q96 -67 186 -82v120q-126 29 -184.5 78t-58.5 140q0 90 63 146.5t176 64.5v57h104v-60q115 -13 211 -78l-82 -134q-59 42 -134 60v-116q124 -29 181.5 -79t57.5 -141q0 -90 -63.5 -145t-172.5 -65v-98h-104zM395 146q67 7 67 53
q0 21 -14.5 33.5t-52.5 23.5v-110zM302 447v108q-68 -6 -68 -52q0 -20 14.5 -32.5t53.5 -23.5z" />
    <glyph glyph-name="percent" unicode="%" horiz-adv-x="899" 
d="M112 0l540 700h135l-540 -700h-135zM683 -10q-79 0 -129.5 54.5t-50.5 134.5q0 79 50 133.5t131 54.5q80 0 130 -54.5t50 -134.5q0 -78 -51 -133t-130 -55zM684 100q25 0 41.5 22t16.5 57q0 34 -16.5 56t-42.5 22q-27 0 -42.5 -21.5t-15.5 -57.5q0 -33 17 -55.5t42 -22.5
zM215 333q-80 0 -130 54.5t-50 134.5q0 79 50 133.5t131 54.5q80 0 130 -54.5t50 -134.5q0 -79 -51 -133.5t-130 -54.5zM216 443q25 0 41.5 22t16.5 57q0 33 -17 55.5t-42 22.5q-26 0 -42 -22t-16 -57q0 -34 17 -56t42 -22z" />
    <glyph glyph-name="ampersand" unicode="&#x26;" horiz-adv-x="698" 
d="M551 -14l-72 73q-93 -71 -208 -71q-110 0 -180 54.5t-70 149.5q0 132 142 196q-46 66 -46 136q0 79 60 134.5t160 55.5q94 0 151 -51.5t57 -130.5q0 -119 -137 -182l78 -76q31 45 66 111l128 -64q-49 -89 -92 -148l94 -93zM297 131q38 0 83 30l-115 117q-50 -30 -50 -78
q0 -31 23 -50t59 -19zM317 437q74 33 74 88q0 25 -15 40.5t-39 15.5q-25 0 -40.5 -17.5t-15.5 -46.5q0 -35 36 -80z" />
    <glyph glyph-name="quotesingle" unicode="'" horiz-adv-x="284" 
d="M34 341l22 359h208v-5l-127 -354h-103z" />
    <glyph glyph-name="parenleft" unicode="(" horiz-adv-x="445" 
d="M336 -141q-146 76 -219 178.5t-73 249.5t73 249.5t219 178.5l79 -118q-98 -67 -141.5 -139.5t-43.5 -170.5t43.5 -170.5t141.5 -139.5z" />
    <glyph glyph-name="parenright" unicode=")" horiz-adv-x="445" 
d="M109 -141l-79 118q98 67 141.5 139.5t43.5 170.5t-43.5 170.5t-141.5 139.5l79 118q146 -76 219 -178.5t73 -249.5t-73 -249.5t-219 -178.5z" />
    <glyph glyph-name="asterisk" unicode="*" horiz-adv-x="425" 
d="M160 339l25 132l-103 -88l-54 92l127 45l-127 45l54 93l103 -88l-25 132h105l-25 -132l103 88l54 -93l-127 -45l127 -45l-54 -92l-103 88l25 -132h-105z" />
    <glyph glyph-name="plus" unicode="+" horiz-adv-x="640" 
d="M233 96v172h-169v168h169v172h174v-172h169v-168h-169v-172h-174z" />
    <glyph glyph-name="comma" unicode="," horiz-adv-x="284" 
d="M35 -165l-15 73q100 12 100 90v4h-77v195h198v-159q0 -106 -53 -153t-153 -50z" />
    <glyph glyph-name="hyphen" unicode="-" horiz-adv-x="408" 
d="M40 229v167h328v-167h-328z" />
    <glyph glyph-name="period" unicode="." horiz-adv-x="284" 
d="M43 0v195h198v-195h-198z" />
    <glyph glyph-name="slash" unicode="/" horiz-adv-x="535" 
d="M-38 -128l443 926h154l-443 -926h-154z" />
    <glyph glyph-name="zero" unicode="0" horiz-adv-x="730" 
d="M364 -14q-146 0 -234.5 104.5t-88.5 259.5q0 153 90 258.5t235 105.5q146 0 234.5 -105t88.5 -259q0 -153 -89.5 -258.5t-235.5 -105.5zM366 158q58 0 93 53.5t35 138.5q0 84 -36.5 138t-93.5 54q-58 0 -93 -53t-35 -139q0 -85 36 -138.5t94 -53.5z" />
    <glyph glyph-name="one" unicode="1" horiz-adv-x="422" 
d="M163 0v524l-118 -27l-37 150l205 58h141v-705h-191z" />
    <glyph glyph-name="two" unicode="2" horiz-adv-x="624" 
d="M33 0v146l262 200q49 37 69.5 65.5t20.5 60.5q0 33 -21.5 52t-56.5 19q-34 0 -65.5 -20.5t-73.5 -69.5l-131 109q60 78 124 114t161 36q115 0 186.5 -62.5t71.5 -162.5q0 -79 -38 -131.5t-124 -113.5l-120 -84h289v-158h-554z" />
    <glyph glyph-name="three" unicode="3" horiz-adv-x="621" 
d="M316 -14q-186 0 -298 124l122 122q78 -80 167 -80q41 0 65.5 19.5t24.5 53.5t-30 53t-84 19h-82l-28 101l161 145h-268v157h506v-139l-167 -143q181 -40 181 -199q0 -105 -75.5 -169t-194.5 -64z" />
    <glyph glyph-name="four" unicode="4" horiz-adv-x="689" 
d="M384 0v136h-339l-32 137l363 432h196v-424h89v-145h-89v-136h-188zM217 280h167v201z" />
    <glyph glyph-name="five" unicode="5" horiz-adv-x="630" 
d="M303 -14q-165 0 -284 111l111 130q90 -76 170 -76q48 0 75.5 22.5t27.5 61.5q0 37 -28.5 59t-74.5 22q-54 0 -112 -35l-115 64l20 355h468v-160h-315l-6 -106q53 25 112 25q102 0 171 -57.5t69 -166.5q0 -115 -79.5 -182t-209.5 -67z" />
    <glyph glyph-name="six" unicode="6" horiz-adv-x="662" 
d="M341 -14q-134 0 -214 80q-86 86 -86 264q0 171 83.5 277.5t241.5 106.5q130 0 233 -77l-91 -137q-71 53 -139 53q-59 0 -92 -40t-40 -109q71 54 151 54q97 0 164 -59t67 -161q0 -115 -80 -183.5t-198 -68.5zM333 137q45 0 71 25.5t26 66.5q0 38 -27 64t-72 26t-71 -25.5
t-26 -65.5q0 -39 27 -65t72 -26z" />
    <glyph glyph-name="seven" unicode="7" horiz-adv-x="614" 
d="M62 0l308 537h-324v163h539v-146l-309 -554h-214z" />
    <glyph glyph-name="eight" unicode="8" horiz-adv-x="630" 
d="M315 -12q-127 0 -207.5 57.5t-80.5 149.5q0 117 120 168q-96 53 -96 154q0 85 73.5 140t190.5 55t190.5 -55.5t73.5 -141.5q0 -99 -96 -152q58 -27 89 -66.5t31 -102.5q0 -93 -80.5 -149.5t-207.5 -56.5zM315 133q47 0 74 23.5t27 57.5t-28.5 55t-72.5 21
q-45 0 -73 -21.5t-28 -56.5q0 -33 27 -56t74 -23zM315 416q39 0 62.5 21.5t23.5 56.5q0 30 -24 52t-62 22q-39 0 -62.5 -21.5t-23.5 -53.5q0 -33 23.5 -55t62.5 -22z" />
    <glyph glyph-name="nine" unicode="9" horiz-adv-x="662" 
d="M297 -14q-138 0 -244 83l91 134q71 -56 150 -56q59 0 92 38.5t40 107.5q-60 -57 -148 -57q-104 0 -169.5 60t-65.5 163q0 115 78.5 185t200.5 70q74 0 123.5 -20t91.5 -62q84 -82 84 -261q0 -176 -85 -280.5t-239 -104.5zM331 375q45 0 71.5 26t26.5 67t-27.5 68
t-72.5 27t-71.5 -26.5t-26.5 -69.5q0 -40 27.5 -66t72.5 -26z" />
    <glyph glyph-name="colon" unicode=":" horiz-adv-x="294" 
d="M48 0v195h198v-195h-198zM48 346v195h198v-195h-198z" />
    <glyph glyph-name="semicolon" unicode=";" horiz-adv-x="294" 
d="M40 -167l-15 73q100 12 100 90v4h-77v195h198v-159q0 -106 -53 -153t-153 -50zM48 346v195h198v-195h-198z" />
    <glyph glyph-name="less" unicode="&#x3c;" horiz-adv-x="640" 
d="M562 65l-497 198v177l497 198v-177l-327 -109l327 -109v-178z" />
    <glyph glyph-name="equal" unicode="=" horiz-adv-x="640" 
d="M74 134v167h491v-167h-491zM74 403v167h491v-167h-491z" />
    <glyph glyph-name="greater" unicode="&#x3e;" horiz-adv-x="640" 
d="M78 65v177l327 109l-327 109v178l497 -198v-177z" />
    <glyph glyph-name="question" unicode="?" horiz-adv-x="540" 
d="M150 0v170h197v-170h-197zM191 228l-25 167l8 9q84 7 120.5 27t36.5 54q0 26 -19.5 40.5t-55.5 14.5q-72 0 -146 -66l-100 132q105 105 259 105q112 0 181 -57t69 -155q0 -88 -51.5 -136.5t-143.5 -70.5l-12 -64h-121z" />
    <glyph glyph-name="at" unicode="@" horiz-adv-x="965" 
d="M491 -162q-192 0 -319 127t-127 310q0 182 128 310.5t315 128.5q182 0 306.5 -116t124.5 -273q0 -128 -62.5 -198t-150.5 -70q-110 0 -154 76q-64 -74 -147 -74q-79 0 -131 55.5t-52 145.5q0 107 65.5 183.5t155.5 76.5q87 0 134 -74l12 61l155 -24l-46 -258
q-4 -20 -4 -44q0 -26 17.5 -42.5t47.5 -16.5q51 0 84.5 53.5t33.5 149.5q0 142 -111 245.5t-278 103.5q-173 0 -287 -115.5t-114 -283.5q0 -169 113.5 -283t290.5 -114q131 0 245 67l20 -32q-123 -75 -265 -75zM455 194q40 0 68 33.5t28 81.5q0 35 -20.5 55.5t-52.5 20.5
q-40 0 -68 -33t-28 -80q0 -37 20.5 -57.5t52.5 -20.5z" />
    <glyph glyph-name="A" unicode="A" horiz-adv-x="795" 
d="M6 0l298 705h187l298 -705h-208l-51 125h-270l-50 -125h-204zM317 276h157l-78 199z" />
    <glyph glyph-name="B" unicode="B" horiz-adv-x="715" 
d="M62 0v700h359q128 0 191 -63q45 -45 45 -115q0 -109 -108 -156q68 -22 103.5 -63t35.5 -110q0 -90 -70 -141.5t-195 -51.5h-361zM251 156h150q93 0 93 66q0 63 -95 63h-148v-129zM251 421h122q92 0 92 63q0 60 -88 60h-126v-123z" />
    <glyph glyph-name="C" unicode="C" horiz-adv-x="730" 
d="M399 -14q-152 0 -256.5 103.5t-104.5 260.5q0 154 105.5 259t263.5 105q187 0 294 -148l-142 -110q-65 81 -154 81q-73 0 -120 -54t-47 -133q0 -80 47 -133.5t120 -53.5q51 0 87 21.5t71 63.5l146 -104q-55 -75 -128 -116.5t-182 -41.5z" />
    <glyph glyph-name="D" unicode="D" horiz-adv-x="765" 
d="M62 0v700h270q184 0 289.5 -96t105.5 -252q0 -155 -107 -253.5t-292 -98.5h-266zM256 172h79q88 0 140.5 47t52.5 132q0 83 -52.5 131t-140.5 48h-79v-358z" />
    <glyph glyph-name="E" unicode="E" horiz-adv-x="667" 
d="M62 0v700h563v-165h-371v-106h336v-153h-336v-111h376v-165h-568z" />
    <glyph glyph-name="F" unicode="F" horiz-adv-x="648" 
d="M62 0v700h560v-170h-366v-119h331v-161h-331v-250h-194z" />
    <glyph glyph-name="G" unicode="G" horiz-adv-x="769" 
d="M419 -14q-165 0 -273 102.5t-108 261.5q0 154 107.5 259t269.5 105q166 0 284 -102l-114 -137q-79 66 -169 66q-76 0 -127.5 -56t-51.5 -138q0 -85 53.5 -139.5t136.5 -54.5q68 0 112 29v85h-138v142h322v-315q-131 -108 -304 -108z" />
    <glyph glyph-name="H" unicode="H" horiz-adv-x="761" 
d="M62 0v700h194v-262h249v262h194v-700h-194v266h-249v-266h-194z" />
    <glyph glyph-name="I" unicode="I" horiz-adv-x="327" 
d="M66 0v700h195v-700h-195z" />
    <glyph glyph-name="J" unicode="J" horiz-adv-x="564" 
d="M250 -12q-160 0 -246 118l125 118q54 -65 109 -65q38 0 59 25t21 73v443h193v-444q0 -128 -69 -197q-71 -71 -192 -71z" />
    <glyph glyph-name="K" unicode="K" horiz-adv-x="730" 
d="M62 0v700h194v-284l241 284h230l-265 -301l274 -399h-233l-176 260l-71 -79v-181h-194z" />
    <glyph glyph-name="L" unicode="L" horiz-adv-x="616" 
d="M62 0v700h194v-530h339v-170h-533z" />
    <glyph glyph-name="M" unicode="M" horiz-adv-x="868" 
d="M62 0v700h205l167 -271l167 271h205v-700h-193v402l-179 -274h-4l-178 272v-400h-190z" />
    <glyph glyph-name="N" unicode="N" horiz-adv-x="785" 
d="M62 0v700h181l288 -370v370h192v-700h-170l-299 384v-384h-192z" />
    <glyph glyph-name="O" unicode="O" horiz-adv-x="831" 
d="M414 -14q-161 0 -268.5 105.5t-107.5 258.5q0 152 108.5 258t269.5 106t268.5 -105.5t107.5 -258.5q0 -152 -108.5 -258t-269.5 -106zM416 161q79 0 128.5 55t49.5 134q0 78 -51 133.5t-129 55.5t-127.5 -55t-49.5 -134q0 -78 50.5 -133.5t128.5 -55.5z" />
    <glyph glyph-name="P" unicode="P" horiz-adv-x="673" 
d="M62 0v700h300q134 0 212.5 -65.5t78.5 -182.5q0 -120 -83 -186t-218 -66h-96v-200h-194zM256 352h92q52 0 81.5 25t29.5 68q0 45 -29.5 68.5t-82.5 23.5h-91v-185z" />
    <glyph glyph-name="Q" unicode="Q" horiz-adv-x="831" 
d="M704 -21l-77 69q-95 -62 -213 -62q-161 0 -268.5 105.5t-107.5 258.5q0 152 108.5 258t269.5 106t268.5 -105.5t107.5 -258.5q0 -113 -62 -201l72 -61zM416 158q37 0 71 13l-97 83l98 110l95 -86q12 32 12 70q0 79 -51 135t-130 56q-78 0 -127.5 -56t-49.5 -135
q0 -78 50.5 -134t128.5 -56z" />
    <glyph glyph-name="R" unicode="R" horiz-adv-x="719" 
d="M62 0v700h331q153 0 228 -75q62 -62 62 -166q0 -154 -144 -215l167 -244h-224l-141 212h-85v-212h-194zM256 364h128q49 0 76.5 22.5t27.5 62.5q0 41 -27.5 62t-77.5 21h-127v-168z" />
    <glyph glyph-name="S" unicode="S" horiz-adv-x="652" 
d="M337 -12q-198 0 -328 116l108 129q105 -84 227 -84q80 0 80 50q0 22 -24 36.5t-94 30.5q-64 15 -105.5 29.5t-81 39t-58.5 62.5t-19 91q0 99 73.5 161.5t197.5 62.5q172 0 288 -93l-97 -137q-98 69 -196 69q-34 0 -52 -13t-18 -34q0 -24 24.5 -38t96.5 -30
q132 -29 196.5 -77.5t64.5 -142.5q0 -106 -77 -167t-206 -61z" />
    <glyph glyph-name="T" unicode="T" horiz-adv-x="660" 
d="M233 0v530h-210v170h614v-170h-210v-530h-194z" />
    <glyph glyph-name="U" unicode="U" horiz-adv-x="758" 
d="M377 -13q-154 0 -239 80t-85 240v393h197v-389q0 -74 34.5 -111.5t94.5 -37.5t94.5 36t34.5 108v394h197v-388q0 -164 -86.5 -244.5t-241.5 -80.5z" />
    <glyph glyph-name="V" unicode="V" horiz-adv-x="760" 
d="M290 -5l-284 705h217l159 -443l159 443h213l-284 -705h-180z" />
    <glyph glyph-name="W" unicode="W" horiz-adv-x="1117" 
d="M249 -5l-234 705h205l122 -405l135 407h167l135 -407l122 405h201l-234 -705h-169l-141 403l-140 -403h-169z" />
    <glyph glyph-name="X" unicode="X" horiz-adv-x="732" 
d="M11 0l240 356l-230 344h223l124 -197l125 197h218l-230 -342l240 -358h-223l-134 211l-135 -211h-218z" />
    <glyph glyph-name="Y" unicode="Y" horiz-adv-x="723" 
d="M264 0v262l-266 438h221l144 -255l145 255h217l-266 -435v-265h-195z" />
    <glyph glyph-name="Z" unicode="Z" horiz-adv-x="698" 
d="M40 0v141l351 395h-339v164h607v-141l-351 -395h351v-164h-619z" />
    <glyph glyph-name="bracketleft" unicode="[" horiz-adv-x="457" 
d="M66 -130v830h346v-129h-176v-572h176v-129h-346z" />
    <glyph glyph-name="backslash" unicode="\" horiz-adv-x="535" 
d="M419 -128l-443 926h154l443 -926h-154z" />
    <glyph glyph-name="bracketright" unicode="]" horiz-adv-x="457" 
d="M45 -130v129h176v572h-176v129h346v-830h-346z" />
    <glyph glyph-name="asciicircum" unicode="^" 
d="M42 493l144 206h128l144 -206h-133l-76 97l-76 -97h-131z" />
    <glyph glyph-name="underscore" unicode="_" horiz-adv-x="600" 
d="M-2 -160v116h604v-116h-604z" />
    <glyph glyph-name="grave" unicode="`" 
d="M235 587l-147 128l177 57l104 -185h-134z" />
    <glyph glyph-name="a" unicode="a" horiz-adv-x="599" 
d="M206 -12q-80 0 -131 44.5t-51 124.5q0 82 57 126t155 44q71 0 130 -21v9q0 88 -108 88q-73 0 -149 -30l-39 134q102 42 219 42q140 0 206 -66q58 -57 58 -172v-311h-188v56q-61 -68 -159 -68zM274 107q42 0 68 24.5t26 64.5v25q-33 14 -74 14t-64 -18.5t-23 -50.5
q0 -27 18.5 -43t48.5 -16z" />
    <glyph glyph-name="b" unicode="b" horiz-adv-x="676" 
d="M406 -12q-98 0 -165 78v-66h-190v730h190v-261q69 84 164 84q100 0 170 -77.5t70 -204.5q0 -128 -69.5 -205.5t-169.5 -77.5zM347 147q47 0 79 35t32 90q0 53 -32 87.5t-79 34.5q-46 0 -78 -35t-32 -89q0 -53 32 -88t78 -35z" />
    <glyph glyph-name="c" unicode="c" horiz-adv-x="569" 
d="M312 -13q-121 0 -202 82.5t-81 200.5q0 117 82 199.5t208 82.5q155 0 231 -121l-127 -92q-38 53 -98 53q-51 0 -81 -35t-30 -87q0 -53 30 -88t78 -35q32 0 54.5 14t47.5 43l129 -93q-84 -124 -241 -124z" />
    <glyph glyph-name="d" unicode="d" horiz-adv-x="676" 
d="M270 -12q-100 0 -169.5 77.5t-69.5 204.5q0 128 69 205.5t169 77.5q98 0 166 -78v255h190v-730h-190v72q-69 -84 -165 -84zM328 147q46 0 78 35t32 90q0 53 -32 87.5t-78 34.5q-47 0 -79 -35t-32 -89q0 -53 32.5 -88t78.5 -35z" />
    <glyph glyph-name="e" unicode="e" horiz-adv-x="605" 
d="M319 -13q-128 0 -209 78t-81 205q0 120 77 201.5t196 81.5q133 0 203 -84t70 -212q0 -26 -1 -39h-362q23 -89 117 -89q64 0 120 55l105 -87q-87 -110 -235 -110zM209 315h188q-5 45 -30 71.5t-64 26.5q-37 0 -61.5 -26.5t-32.5 -71.5z" />
    <glyph glyph-name="f" unicode="f" horiz-adv-x="404" 
d="M85 0v389h-63v149h63v12q0 94 46 140q47 47 141 47q74 0 124 -15v-134q-35 11 -71 11q-54 0 -54 -51v-13h124v-146h-121v-389h-189z" />
    <glyph glyph-name="g" unicode="g" horiz-adv-x="676" 
d="M317 -162q-150 0 -271 62l61 126q92 -51 189 -51q142 0 142 133v21q-70 -81 -167 -81q-103 0 -171.5 69t-68.5 184q0 113 68.5 182.5t165.5 69.5q98 0 170 -76v64h190v-411q0 -146 -70 -216q-76 -76 -238 -76zM328 194q48 0 79 30t31 77q0 45 -31 74.5t-79 29.5
q-49 0 -80 -30t-31 -77q0 -45 31 -74.5t80 -29.5z" />
    <glyph glyph-name="h" unicode="h" horiz-adv-x="634" 
d="M51 0v730h190v-263q67 86 162 86q86 0 135 -53.5t49 -145.5v-354h-190v293q0 43 -20.5 67t-55.5 24q-36 0 -58 -24t-22 -67v-293h-190z" />
    <glyph glyph-name="i" unicode="i" horiz-adv-x="300" 
d="M55 0v541h190v-541h-190zM51 590v140h198v-140h-198z" />
    <glyph glyph-name="j" unicode="j" horiz-adv-x="302" 
d="M52 -163q-24 0 -78 7v126q8 -1 25 -1q29 0 42.5 14.5t13.5 48.5v509h190v-517q0 -99 -48.5 -143t-144.5 -44zM51 590v140h198v-140h-198z" />
    <glyph glyph-name="k" unicode="k" horiz-adv-x="603" 
d="M51 0v730h190v-370l147 181h215l-188 -217l193 -324h-209l-109 184l-49 -57v-127h-190z" />
    <glyph glyph-name="l" unicode="l" horiz-adv-x="300" 
d="M55 0v730h190v-730h-190z" />
    <glyph glyph-name="m" unicode="m" horiz-adv-x="971" 
d="M51 0v541h190v-74q67 86 161 86q110 0 156 -88q77 88 181 88q87 0 136 -52t49 -146v-355h-190v294q0 43 -20 66.5t-54 23.5q-35 0 -56.5 -23.5t-21.5 -66.5v-294h-190v294q0 43 -20 66.5t-54 23.5q-35 0 -56 -23.5t-21 -66.5v-294h-190z" />
    <glyph glyph-name="n" unicode="n" horiz-adv-x="634" 
d="M51 0v541h190v-76q68 88 162 88q86 0 135 -53.5t49 -145.5v-354h-190v293q0 43 -20.5 67t-55.5 24q-36 0 -58 -24t-22 -67v-293h-190z" />
    <glyph glyph-name="o" unicode="o" horiz-adv-x="656" 
d="M327 -13q-128 0 -213 82.5t-85 200.5q0 117 85.5 200t214.5 83q128 0 213 -82.5t85 -200.5q0 -117 -85.5 -200t-214.5 -83zM329 148q51 0 82 35t31 87q0 50 -33 86t-82 36q-51 0 -82 -35t-31 -87q0 -50 33 -86t82 -36z" />
    <glyph glyph-name="p" unicode="p" horiz-adv-x="676" 
d="M51 -160v701h190v-72q69 84 164 84q100 0 170 -77.5t70 -204.5q0 -128 -69.5 -205.5t-169.5 -77.5q-98 0 -165 78v-226h-190zM347 147q47 0 79 35t32 90q0 53 -32 87.5t-79 34.5q-46 0 -78 -35t-32 -89q0 -53 32 -88t78 -35z" />
    <glyph glyph-name="q" unicode="q" horiz-adv-x="676" 
d="M435 -160v232q-69 -84 -165 -84q-100 0 -169.5 77.5t-69.5 204.5q0 128 69 205.5t169 77.5q98 0 166 -78v66h190v-701h-190zM328 147q46 0 78 35t32 90q0 53 -32 87.5t-78 34.5q-47 0 -79 -35t-32 -89q0 -53 32.5 -88t78.5 -35z" />
    <glyph glyph-name="r" unicode="r" horiz-adv-x="428" 
d="M51 0v541h190v-109q52 123 171 118v-200h-16q-155 0 -155 -182v-168h-190z" />
    <glyph glyph-name="s" unicode="s" horiz-adv-x="514" 
d="M266 -12q-145 0 -256 80l71 115q94 -62 186 -62q48 0 48 31q0 15 -19.5 24t-67.5 22q-95 26 -143.5 62.5t-48.5 112.5q0 84 60.5 131.5t156.5 47.5q125 0 223 -63l-65 -120q-90 50 -160 50q-44 0 -44 -28q0 -14 19 -23.5t69 -24.5q46 -13 76 -25.5t59 -32.5t43 -48.5
t14 -67.5q0 -87 -60 -134t-161 -47z" />
    <glyph glyph-name="t" unicode="t" horiz-adv-x="431" 
d="M266 -11q-182 0 -182 179v220h-64v153h64v137h190v-137h126v-153h-126v-183q0 -54 52 -54q34 0 72 18v-149q-55 -31 -132 -31z" />
    <glyph glyph-name="u" unicode="u" horiz-adv-x="634" 
d="M231 -12q-86 0 -135 53t-49 146v354h190v-293q0 -43 21 -67t56 -24t57 24t22 67v293h190v-541h-190v74q-67 -86 -162 -86z" />
    <glyph glyph-name="v" unicode="v" horiz-adv-x="625" 
d="M226 -4l-216 545h200l104 -316l104 316h197l-216 -545h-173z" />
    <glyph glyph-name="w" unicode="w" horiz-adv-x="861" 
d="M177 -4l-165 545h186l71 -272l83 274h157l84 -276l73 274h183l-167 -545h-164l-88 281l-90 -281h-163z" />
    <glyph glyph-name="x" unicode="x" horiz-adv-x="589" 
d="M8 0l182 273l-179 268h205l80 -133l80 133h201l-178 -267l182 -274h-204l-84 139l-85 -139h-200z" />
    <glyph glyph-name="y" unicode="y" horiz-adv-x="626" 
d="M211 -163q-90 0 -174 47l59 133q48 -29 83 -29q28 0 44 22l-212 531h199l108 -326l102 326h195l-198 -528q-36 -96 -81 -136t-125 -40z" />
    <glyph glyph-name="z" unicode="z" horiz-adv-x="563" 
d="M32 0v125l250 265h-241v151h493v-125l-251 -265h251v-151h-502z" />
    <glyph glyph-name="braceleft" unicode="{" horiz-adv-x="490" 
d="M429 -141q-146 18 -205 63t-59 130q0 7 1.5 36t1.5 38q0 55 -28.5 76.5t-89.5 21.5h-16v126h16q61 0 89.5 21.5t28.5 76.5q0 9 -1.5 38t-1.5 36q0 85 59 130t205 63l29 -111q-77 -17 -100.5 -40.5t-23.5 -72.5q0 -8 1.5 -33.5t1.5 -36.5q0 -103 -112 -134
q112 -31 112 -134q0 -11 -1.5 -36.5t-1.5 -33.5q0 -49 23.5 -72.5t100.5 -40.5z" />
    <glyph glyph-name="bar" unicode="|" horiz-adv-x="355" 
d="M105 -128v926h145v-926h-145z" />
    <glyph glyph-name="braceright" unicode="}" horiz-adv-x="490" 
d="M61 -141l-29 111q77 17 100.5 40.5t23.5 72.5q0 8 -1.5 33.5t-1.5 36.5q0 103 112 134q-112 31 -112 134q0 11 1.5 36.5t1.5 33.5q0 49 -23.5 72.5t-100.5 40.5l29 111q146 -18 205 -63t59 -130q0 -7 -1.5 -36t-1.5 -38q0 -55 28.5 -76.5t89.5 -21.5h16v-126h-16
q-61 0 -89.5 -21.5t-28.5 -76.5q0 -9 1.5 -38t1.5 -36q0 -85 -59 -130t-205 -63z" />
    <glyph glyph-name="asciitilde" unicode="~" horiz-adv-x="505" 
d="M133 220l-92 25q17 77 45.5 113t78.5 36q33 0 88 -19.5t68 -19.5q20 0 30 10.5t21 35.5l92 -25q-17 -77 -45.5 -113t-78.5 -36q-33 0 -88.5 19.5t-68.5 19.5q-20 0 -29.5 -10t-20.5 -36z" />
    <glyph glyph-name="uni00A0" unicode="&#xa0;" horiz-adv-x="277" 
 />
    <glyph glyph-name="exclamdown" unicode="&#xa1;" horiz-adv-x="324" 
d="M54 0v85l58 387h100l58 -387v-85h-216zM63 530v170h198v-170h-198z" />
    <glyph glyph-name="cent" unicode="&#xa2;" horiz-adv-x="575" 
d="M202 -6l17 98q-84 29 -135.5 100.5t-51.5 162.5q0 118 79 198t205 83l12 70h115l-15 -87q81 -30 126 -97l-116 -89q-22 27 -47 40l-46 -252q53 7 95 57l115 -84q-79 -115 -224 -119l-14 -81h-115zM253 238l45 253q-45 -7 -73 -45.5t-28 -90.5q0 -83 56 -117z" />
    <glyph glyph-name="sterling" unicode="&#xa3;" horiz-adv-x="639" 
d="M44 0v115l75 29v119h-75v136h75v51q0 124 69 193t191 69q142 0 233 -101l-118 -129q-48 57 -102 57q-37 0 -58.5 -24t-21.5 -65v-51h216v-136h-216v-110h293v-153h-561z" />
    <glyph glyph-name="currency" unicode="&#xa4;" horiz-adv-x="682" 
d="M421 -14q-118 0 -197.5 64.5t-105.5 172.5h-81v104h68q-1 7 -1 23q0 18 1 27h-68v104h84q28 103 106.5 168t194.5 65q152 0 240 -113l-123 -115q-49 62 -116 62q-76 0 -109 -70h156v-101h-178q-1 -8 -1 -27q0 -15 1 -23h178v-101h-158q35 -74 115 -74q64 0 118 66
l120 -113q-92 -119 -244 -119z" />
    <glyph glyph-name="yen" unicode="&#xa5;" horiz-adv-x="708" 
d="M258 0v93h-184v120h184v50h-184v120h138l-208 317h220l132 -230l132 230h216l-209 -317h139v-120h-184v-50h184v-120h-184v-93h-192z" />
    <glyph glyph-name="brokenbar" unicode="&#xa6;" horiz-adv-x="222" 
d="M33 -89v250h157v-250h-157zM33 411v250h157v-250h-157z" />
    <glyph glyph-name="section" unicode="&#xa7;" horiz-adv-x="626" 
d="M309 -13q-72 0 -134.5 22t-102.5 57l77 109q82 -59 164 -59q54 0 54 32q0 25 -97 46q-111 24 -169.5 56t-58.5 91q0 77 91 110q-47 36 -47 101q0 70 60 115.5t171 45.5q72 0 134.5 -22t102.5 -57l-77 -109q-82 59 -164 59q-54 0 -54 -32q0 -14 21.5 -24t75.5 -22
t89.5 -22.5t70 -27.5t51.5 -41t17 -56q0 -77 -91 -110q47 -36 47 -100q0 -70 -60 -116t-171 -46zM387 297q51 0 51 37q0 27 -101 51q-71 18 -99 18q-51 0 -51 -37q0 -27 101 -51q72 -18 99 -18z" />
    <glyph glyph-name="dieresis" unicode="&#xa8;" 
d="M58 587v143h165v-143h-165zM277 587v143h165v-143h-165z" />
    <glyph glyph-name="copyright" unicode="&#xa9;" horiz-adv-x="830" 
d="M414 -14q-151 0 -256 107t-105 257q0 149 106 256.5t257 107.5t256 -107t105 -257q0 -149 -106 -256.5t-257 -107.5zM414 26q136 0 228.5 95.5t92.5 230.5q0 134 -92 228t-227 94q-136 0 -228.5 -95.5t-92.5 -230.5q0 -134 92 -228t227 -94zM420 156q-87 0 -144 57
t-57 142q0 83 57.5 141t146.5 58q103 0 162 -79l-81 -64q-37 45 -84 45q-39 0 -64.5 -29.5t-25.5 -72.5t25.5 -71.5t64.5 -28.5q47 0 86 46l82 -58q-64 -86 -168 -86z" />
    <glyph glyph-name="ordfeminine" unicode="&#xaa;" horiz-adv-x="390" 
d="M41 270v77h299v-77h-299zM144 397q-44 0 -72 24.5t-28 68.5q0 45 31.5 69t85.5 24q40 0 71 -11v4q0 49 -60 49q-36 0 -82 -17l-21 74q56 23 120 23q77 0 114 -37q32 -31 32 -95v-170h-104v32q-33 -38 -87 -38zM181 463q23 0 37.5 13.5t14.5 35.5v13q-22 8 -41 8
q-22 0 -34.5 -10.5t-12.5 -27.5q0 -15 10 -23.5t26 -8.5z" />
    <glyph glyph-name="guillemotleft" unicode="&#xab;" horiz-adv-x="631" 
d="M190 30l-160 214v48l160 214l137 -67l-130 -171l130 -170zM465 30l-176 234v8l176 234l136 -67l-130 -171l130 -170z" />
    <glyph glyph-name="logicalnot" unicode="&#xac;" horiz-adv-x="640" 
d="M391 231v172h-317v167h491v-339h-174z" />
    <glyph glyph-name="uni00AD" unicode="&#xad;" horiz-adv-x="408" 
d="M40 229v167h328v-167h-328z" />
    <glyph glyph-name="registered" unicode="&#xae;" horiz-adv-x="830" 
d="M414 -14q-151 0 -256 107t-105 257q0 149 106 256.5t257 107.5t256 -107t105 -257q0 -149 -106 -256.5t-257 -107.5zM414 26q136 0 228.5 95.5t92.5 230.5q0 134 -92 228t-227 94q-136 0 -228.5 -95.5t-92.5 -230.5q0 -134 92 -228t227 -94zM256 168v385h179
q87 0 130 -43q33 -33 33 -90q0 -85 -79 -118l92 -134h-123l-80 117h-45v-117h-107zM363 368h70q58 0 58 47q0 46 -59 46h-69v-93z" />
    <glyph glyph-name="macron" unicode="&#xaf;" 
d="M62 592v116h376v-116h-376z" />
    <glyph glyph-name="degree" unicode="&#xb0;" horiz-adv-x="472" 
d="M236 352q-74 0 -128 52t-54 126q0 72 54.5 125t127.5 53t127.5 -53t54.5 -127q0 -72 -54 -124t-128 -52zM236 444q36 0 60 25t24 61q0 35 -24.5 60t-59.5 25t-59.5 -25t-24.5 -62q0 -35 24 -59.5t60 -24.5z" />
    <glyph glyph-name="plusminus" unicode="&#xb1;" horiz-adv-x="640" 
d="M76 -16v157h491v-157h-491zM233 206v132h-169v168h169v132h174v-132h169v-168h-169v-132h-174z" />
    <glyph glyph-name="twosuperior" unicode="&#xb2;" 
d="M0 0v700h500v-700h-500zM81 49h339l-170 255zM49 96l171 254l-171 254v-508zM450 96v508l-171 -254zM250 395l170 255h-339z" />
    <glyph glyph-name="threesuperior" unicode="&#xb3;" 
d="M0 0v700h500v-700h-500zM81 49h339l-170 255zM49 96l171 254l-171 254v-508zM450 96v508l-171 -254zM250 395l170 255h-339z" />
    <glyph glyph-name="acute" unicode="&#xb4;" 
d="M131 587l104 185l177 -57l-147 -128h-134z" />
    <glyph glyph-name="mu" unicode="&#xb5;" horiz-adv-x="638" 
d="M51 -160v701h190v-293q0 -43 21 -67t56 -24t57 24t22 67v293h190v-541h-190v74q-58 -76 -133 -76q-7 0 -23 2v-160h-190z" />
    <glyph glyph-name="paragraph" unicode="&#xb6;" horiz-adv-x="596" 
d="M339 0v220h-21q-133 0 -214.5 62.5t-81.5 176.5q0 115 79 178t214 63h219v-700h-195z" />
    <glyph glyph-name="periodcentered" unicode="&#xb7;" horiz-adv-x="284" 
d="M43 215v195h198v-195h-198z" />
    <glyph glyph-name="cedilla" unicode="&#xb8;" 
d="M260 -173l-151 64l92 124h125z" />
    <glyph glyph-name="onesuperior" unicode="&#xb9;" 
d="M0 0v700h500v-700h-500zM81 49h339l-170 255zM49 96l171 254l-171 254v-508zM450 96v508l-171 -254zM250 395l170 255h-339z" />
    <glyph glyph-name="ordmasculine" unicode="&#xba;" horiz-adv-x="390" 
d="M51 270v77h288v-77h-288zM194 395q-69 0 -115 44.5t-46 110.5q0 65 46.5 110t116.5 45q69 0 115 -44.5t46 -110.5q0 -65 -46.5 -110t-116.5 -45zM196 484q27 0 43 18.5t16 47.5q0 28 -17 47.5t-44 19.5t-43 -19t-16 -48q0 -28 17 -47t44 -19z" />
    <glyph glyph-name="guillemotright" unicode="&#xbb;" horiz-adv-x="631" 
d="M167 30l-137 67l130 171l-130 170l137 68l175 -234v-8zM441 30l-136 67l130 171l-130 170l136 68l160 -214v-48z" />
    <glyph glyph-name="onequarter" unicode="&#xbc;" 
d="M0 0v700h500v-700h-500zM81 49h339l-170 255zM49 96l171 254l-171 254v-508zM450 96v508l-171 -254zM250 395l170 255h-339z" />
    <glyph glyph-name="onehalf" unicode="&#xbd;" 
d="M0 0v700h500v-700h-500zM81 49h339l-170 255zM49 96l171 254l-171 254v-508zM450 96v508l-171 -254zM250 395l170 255h-339z" />
    <glyph glyph-name="threequarters" unicode="&#xbe;" 
d="M0 0v700h500v-700h-500zM81 49h339l-170 255zM49 96l171 254l-171 254v-508zM450 96v508l-171 -254zM250 395l170 255h-339z" />
    <glyph glyph-name="questiondown" unicode="&#xbf;" horiz-adv-x="540" 
d="M271 -11q-111 0 -180 57t-69 155q0 89 51 137t144 70l11 64h121l26 -167l-9 -9q-84 -7 -120.5 -27t-36.5 -54q0 -26 20 -40.5t56 -14.5q71 0 145 66l101 -132q-105 -105 -260 -105zM193 530v170h198v-170h-198z" />
    <glyph glyph-name="Agrave" unicode="&#xc0;" horiz-adv-x="795" 
d="M6 0l298 705h187l298 -705h-208l-51 125h-270l-50 -125h-204zM317 276h157l-78 199zM343 747l-147 128l177 57l104 -185h-134z" />
    <glyph glyph-name="Aacute" unicode="&#xc1;" horiz-adv-x="795" 
d="M6 0l298 705h187l298 -705h-208l-51 125h-270l-50 -125h-204zM317 276h157l-78 199zM319 747l104 185l177 -57l-147 -128h-134z" />
    <glyph glyph-name="Acircumflex" unicode="&#xc2;" horiz-adv-x="795" 
d="M6 0l298 705h187l298 -705h-208l-51 125h-270l-50 -125h-204zM317 276h157l-78 199zM193 747l128 165h154l128 -165h-122l-84 61l-84 -61h-120z" />
    <glyph glyph-name="Atilde" unicode="&#xc3;" horiz-adv-x="795" 
d="M6 0l298 705h187l298 -705h-208l-51 125h-270l-50 -125h-204zM317 276h157l-78 199zM278 740l-91 25q16 77 45 113t79 36q34 0 89 -19.5t67 -19.5q20 0 30 10.5t21 35.5l91 -25q-16 -77 -45 -113t-79 -36q-33 0 -88 19.5t-68 19.5q-20 0 -30 -10.5t-21 -35.5z" />
    <glyph glyph-name="Adieresis" unicode="&#xc4;" horiz-adv-x="795" 
d="M6 0l298 705h187l298 -705h-208l-51 125h-270l-50 -125h-204zM317 276h157l-78 199zM206 747v143h165v-143h-165zM425 747v143h165v-143h-165z" />
    <glyph glyph-name="Aring" unicode="&#xc5;" horiz-adv-x="795" 
d="M6 0l290 687q-31 34 -31 79q0 51 39.5 88.5t93.5 37.5q53 0 92.5 -37.5t39.5 -90.5q0 -43 -31 -77l290 -687h-208l-51 125h-270l-50 -125h-204zM398 698q27 0 46.5 20t19.5 48q0 26 -19.5 45.5t-46.5 19.5q-28 0 -47.5 -19.5t-19.5 -47.5q0 -27 19.5 -46.5t47.5 -19.5z
M317 276h157l-78 199z" />
    <glyph glyph-name="AE" unicode="&#xc6;" horiz-adv-x="1063" 
d="M-5 0l370 700h655v-165h-349v-106h314v-153h-314v-111h354v-165h-543v125h-226l-65 -125h-196zM334 276h148v265h-12z" />
    <glyph glyph-name="Ccedilla" unicode="&#xc7;" horiz-adv-x="730" 
d="M381 -173l-151 64l78 106q-119 30 -194.5 126t-75.5 227q0 154 105.5 259t263.5 105q192 0 297 -146l-146 -113q-66 82 -153 82q-73 0 -120 -54t-47 -133q0 -80 47 -133.5t120 -53.5q51 0 87 21.5t71 63.5l146 -104q-103 -142 -272 -156z" />
    <glyph glyph-name="Egrave" unicode="&#xc8;" horiz-adv-x="667" 
d="M62 0v700h563v-165h-371v-106h336v-153h-336v-111h376v-165h-568zM313 747l-147 128l177 57l104 -185h-134z" />
    <glyph glyph-name="Eacute" unicode="&#xc9;" horiz-adv-x="667" 
d="M62 0v700h563v-165h-371v-106h336v-153h-336v-111h376v-165h-568zM252 747l104 185l177 -57l-147 -128h-134z" />
    <glyph glyph-name="Ecircumflex" unicode="&#xca;" horiz-adv-x="667" 
d="M62 0v700h563v-165h-371v-106h336v-153h-336v-111h376v-165h-568zM140 747l128 165h154l128 -165h-122l-84 61l-84 -61h-120z" />
    <glyph glyph-name="Edieresis" unicode="&#xcb;" horiz-adv-x="667" 
d="M62 0v700h563v-165h-371v-106h336v-153h-336v-111h376v-165h-568zM153 747v143h165v-143h-165zM372 747v143h165v-143h-165z" />
    <glyph glyph-name="Igrave" unicode="&#xcc;" horiz-adv-x="327" 
d="M66 0v700h195v-700h-195zM106 747l-147 128l177 57l104 -185h-134z" />
    <glyph glyph-name="Iacute" unicode="&#xcd;" horiz-adv-x="327" 
d="M66 0v700h195v-700h-195zM87 747l104 185l177 -57l-147 -128h-134z" />
    <glyph glyph-name="Icircumflex" unicode="&#xce;" horiz-adv-x="327" 
d="M66 0v700h195v-700h-195zM-42 747l128 165h154l128 -165h-122l-84 61l-84 -61h-120z" />
    <glyph glyph-name="Idieresis" unicode="&#xcf;" horiz-adv-x="327" 
d="M66 0v700h195v-700h-195zM-29 747v143h165v-143h-165zM190 747v143h165v-143h-165z" />
    <glyph glyph-name="Eth" unicode="&#xd0;" horiz-adv-x="815" 
d="M111 0v276h-80v153h80v271h270q184 0 289.5 -96t105.5 -252q0 -155 -107 -253.5t-292 -98.5h-266zM299 167h85q90 0 141.5 48.5t51.5 135.5q0 85 -51.5 133.5t-141.5 48.5h-85v-104h119v-153h-119v-109z" />
    <glyph glyph-name="Ntilde" unicode="&#xd1;" horiz-adv-x="785" 
d="M62 0v700h181l288 -370v370h192v-700h-170l-299 384v-384h-192zM273 740l-91 25q16 77 45 113t79 36q34 0 89 -19.5t67 -19.5q20 0 30 10.5t21 35.5l91 -25q-16 -77 -45 -113t-79 -36q-34 0 -89 19.5t-67 19.5q-20 0 -30 -10.5t-21 -35.5z" />
    <glyph glyph-name="Ograve" unicode="&#xd2;" horiz-adv-x="831" 
d="M414 -14q-161 0 -268.5 105.5t-107.5 258.5q0 152 108.5 258t269.5 106t268.5 -105.5t107.5 -258.5q0 -152 -108.5 -258t-269.5 -106zM416 161q79 0 128.5 55t49.5 134q0 78 -51 133.5t-129 55.5t-127.5 -55t-49.5 -134q0 -78 50.5 -133.5t128.5 -55.5zM351 747l-147 128
l177 57l104 -185h-134z" />
    <glyph glyph-name="Oacute" unicode="&#xd3;" horiz-adv-x="831" 
d="M414 -14q-161 0 -268.5 105.5t-107.5 258.5q0 152 108.5 258t269.5 106t268.5 -105.5t107.5 -258.5q0 -152 -108.5 -258t-269.5 -106zM416 161q79 0 128.5 55t49.5 134q0 78 -51 133.5t-129 55.5t-127.5 -55t-49.5 -134q0 -78 50.5 -133.5t128.5 -55.5zM347 747l104 185
l177 -57l-147 -128h-134z" />
    <glyph glyph-name="Ocircumflex" unicode="&#xd4;" horiz-adv-x="831" 
d="M414 -14q-161 0 -268.5 105.5t-107.5 258.5q0 152 108.5 258t269.5 106t268.5 -105.5t107.5 -258.5q0 -152 -108.5 -258t-269.5 -106zM416 161q79 0 128.5 55t49.5 134q0 78 -51 133.5t-129 55.5t-127.5 -55t-49.5 -134q0 -78 50.5 -133.5t128.5 -55.5zM211 745l128 165
h154l128 -165h-122l-84 61l-84 -61h-120z" />
    <glyph glyph-name="Otilde" unicode="&#xd5;" horiz-adv-x="831" 
d="M414 -14q-161 0 -268.5 105.5t-107.5 258.5q0 152 108.5 258t269.5 106t268.5 -105.5t107.5 -258.5q0 -152 -108.5 -258t-269.5 -106zM416 161q79 0 128.5 55t49.5 134q0 78 -51 133.5t-129 55.5t-127.5 -55t-49.5 -134q0 -78 50.5 -133.5t128.5 -55.5zM296 740l-91 25
q16 77 45 113t79 36q33 0 88 -19.5t68 -19.5q20 0 30 10.5t21 35.5l91 -25q-16 -77 -45 -113t-79 -36q-33 0 -88 19.5t-68 19.5q-20 0 -30 -10.5t-21 -35.5z" />
    <glyph glyph-name="Odieresis" unicode="&#xd6;" horiz-adv-x="831" 
d="M414 -14q-161 0 -268.5 105.5t-107.5 258.5q0 152 108.5 258t269.5 106t268.5 -105.5t107.5 -258.5q0 -152 -108.5 -258t-269.5 -106zM416 161q79 0 128.5 55t49.5 134q0 78 -51 133.5t-129 55.5t-127.5 -55t-49.5 -134q0 -78 50.5 -133.5t128.5 -55.5zM224 747v143h165
v-143h-165zM443 747v143h165v-143h-165z" />
    <glyph glyph-name="multiply" unicode="&#xd7;" horiz-adv-x="640" 
d="M161 6l-108 109l158 158l-158 158l108 109l158 -159l159 159l108 -109l-158 -158l158 -158l-108 -109l-159 158z" />
    <glyph glyph-name="Oslash" unicode="&#xd8;" horiz-adv-x="831" 
d="M414 -14q-109 0 -198 53l-39 -44h-147l100 112q-92 102 -92 243q0 152 108.5 258t269.5 106q111 0 198 -53l39 44h147l-99 -113q91 -101 91 -242q0 -152 -108.5 -258t-269.5 -106zM416 157q80 0 130.5 56t50.5 137q0 54 -24 97l-238 -271q38 -19 81 -19zM258 253l237 271
q-36 19 -81 19q-79 0 -129.5 -56t-50.5 -137q0 -54 24 -97z" />
    <glyph glyph-name="Ugrave" unicode="&#xd9;" horiz-adv-x="758" 
d="M377 -13q-154 0 -239 80t-85 240v393h197v-389q0 -74 34.5 -111.5t94.5 -37.5t94.5 36t34.5 108v394h197v-388q0 -164 -86.5 -244.5t-241.5 -80.5zM323 742l-147 128l177 57l104 -185h-134z" />
    <glyph glyph-name="Uacute" unicode="&#xda;" horiz-adv-x="758" 
d="M377 -13q-154 0 -239 80t-85 240v393h197v-389q0 -74 34.5 -111.5t94.5 -37.5t94.5 36t34.5 108v394h197v-388q0 -164 -86.5 -244.5t-241.5 -80.5zM301 742l104 185l177 -57l-147 -128h-134z" />
    <glyph glyph-name="Ucircumflex" unicode="&#xdb;" horiz-adv-x="758" 
d="M377 -13q-154 0 -239 80t-85 240v393h197v-389q0 -74 34.5 -111.5t94.5 -37.5t94.5 36t34.5 108v394h197v-388q0 -164 -86.5 -244.5t-241.5 -80.5zM174 747l128 165h154l128 -165h-122l-84 61l-84 -61h-120z" />
    <glyph glyph-name="Udieresis" unicode="&#xdc;" horiz-adv-x="758" 
d="M377 -13q-154 0 -239 80t-85 240v393h197v-389q0 -74 34.5 -111.5t94.5 -37.5t94.5 36t34.5 108v394h197v-388q0 -164 -86.5 -244.5t-241.5 -80.5zM187 747v143h165v-143h-165zM406 747v143h165v-143h-165z" />
    <glyph glyph-name="Yacute" unicode="&#xdd;" horiz-adv-x="723" 
d="M264 0v262l-266 438h221l144 -255l145 255h217l-266 -435v-265h-195zM281 745l104 185l177 -57l-147 -128h-134z" />
    <glyph glyph-name="Thorn" unicode="&#xde;" horiz-adv-x="682" 
d="M62 0v700h194v-100h106q134 0 212.5 -64.5t78.5 -180.5q0 -121 -83 -185.5t-218 -64.5h-96v-105h-194zM256 260h92q52 0 81.5 25t29.5 68q0 44 -29.5 67.5t-82.5 23.5h-91v-184z" />
    <glyph glyph-name="germandbls" unicode="&#xdf;" horiz-adv-x="635" 
d="M338 -4q-20 0 -31 1v136q54 3 83.5 24.5t29.5 58.5q0 35 -30.5 55.5t-82.5 25.5v101q82 41 82 109q0 33 -19.5 53t-49.5 20q-36 0 -58 -25.5t-22 -71.5v-483h-189v479q0 119 71 189.5t201 70.5q114 0 182 -60t68 -151q0 -111 -104 -164q59 -19 99 -61.5t40 -110.5
q0 -91 -74.5 -143.5t-195.5 -52.5z" />
    <glyph glyph-name="agrave" unicode="&#xe0;" horiz-adv-x="599" 
d="M206 -12q-80 0 -131 44.5t-51 124.5q0 82 57 126t155 44q71 0 130 -21v9q0 88 -108 88q-73 0 -149 -30l-39 134q102 42 219 42q140 0 206 -66q58 -57 58 -172v-311h-188v56q-61 -68 -159 -68zM274 107q42 0 68 24.5t26 64.5v25q-33 14 -74 14t-64 -18.5t-23 -50.5
q0 -27 18.5 -43t48.5 -16zM252 589l-147 128l177 57l104 -185h-134z" />
    <glyph glyph-name="aacute" unicode="&#xe1;" horiz-adv-x="599" 
d="M206 -12q-80 0 -131 44.5t-51 124.5q0 82 57 126t155 44q71 0 130 -21v9q0 88 -108 88q-73 0 -149 -30l-39 134q102 42 219 42q140 0 206 -66q58 -57 58 -172v-311h-188v56q-61 -68 -159 -68zM274 107q42 0 68 24.5t26 64.5v25q-33 14 -74 14t-64 -18.5t-23 -50.5
q0 -27 18.5 -43t48.5 -16zM216 589l104 185l177 -57l-147 -128h-134z" />
    <glyph glyph-name="acircumflex" unicode="&#xe2;" horiz-adv-x="599" 
d="M206 -12q-80 0 -131 44.5t-51 124.5q0 82 57 126t155 44q71 0 130 -21v9q0 88 -108 88q-73 0 -149 -30l-39 134q102 42 219 42q140 0 206 -66q58 -57 58 -172v-311h-188v56q-61 -68 -159 -68zM274 107q42 0 68 24.5t26 64.5v25q-33 14 -74 14t-64 -18.5t-23 -50.5
q0 -27 18.5 -43t48.5 -16zM92 587l128 165h154l128 -165h-122l-84 61l-84 -61h-120z" />
    <glyph glyph-name="atilde" unicode="&#xe3;" horiz-adv-x="599" 
d="M206 -12q-80 0 -131 44.5t-51 124.5q0 82 57 126t155 44q71 0 130 -21v9q0 88 -108 88q-73 0 -149 -30l-39 134q102 42 219 42q140 0 206 -66q58 -57 58 -172v-311h-188v56q-61 -68 -159 -68zM274 107q42 0 68 24.5t26 64.5v25q-33 14 -74 14t-64 -18.5t-23 -50.5
q0 -27 18.5 -43t48.5 -16zM179 580l-91 25q16 77 45 113t79 36q34 0 89 -19.5t67 -19.5q20 0 30 10.5t21 35.5l91 -25q-16 -77 -45 -113t-79 -36q-34 0 -89 19.5t-67 19.5q-20 0 -30 -10.5t-21 -35.5z" />
    <glyph glyph-name="adieresis" unicode="&#xe4;" horiz-adv-x="599" 
d="M206 -12q-80 0 -131 44.5t-51 124.5q0 82 57 126t155 44q71 0 130 -21v9q0 88 -108 88q-73 0 -149 -30l-39 134q102 42 219 42q140 0 206 -66q58 -57 58 -172v-311h-188v56q-61 -68 -159 -68zM274 107q42 0 68 24.5t26 64.5v25q-33 14 -74 14t-64 -18.5t-23 -50.5
q0 -27 18.5 -43t48.5 -16zM105 589v143h165v-143h-165zM324 589v143h165v-143h-165z" />
    <glyph glyph-name="aring" unicode="&#xe5;" horiz-adv-x="599" 
d="M206 -12q-80 0 -131 44.5t-51 124.5q0 82 57 126t155 44q71 0 130 -21v9q0 88 -108 88q-73 0 -149 -30l-39 134q102 42 219 42q140 0 206 -66q58 -57 58 -172v-311h-188v56q-61 -68 -159 -68zM274 107q42 0 68 24.5t26 64.5v25q-33 14 -74 14t-64 -18.5t-23 -50.5
q0 -27 18.5 -43t48.5 -16zM297 591q-53 0 -93 38.5t-40 90.5q0 51 40 88.5t93 37.5t93 -37.5t40 -90.5q0 -51 -40 -89t-93 -38zM297 652q28 0 47.5 20t19.5 48q0 26 -19.5 45.5t-47.5 19.5t-47.5 -19.5t-19.5 -47.5q0 -27 19.5 -46.5t47.5 -19.5z" />
    <glyph glyph-name="ae" unicode="&#xe6;" horiz-adv-x="940" 
d="M225 -12q-88 0 -144.5 44t-56.5 125q0 82 57 126t155 44q71 0 130 -21v9q0 88 -108 88q-73 0 -149 -30l-39 134q102 42 219 42q122 0 183 -61q68 65 169 65q130 0 199.5 -84.5t69.5 -211.5q0 -13 -2 -39h-362q24 -89 117 -89q64 0 120 55l105 -87q-87 -110 -234 -110
q-131 0 -212 81q-105 -80 -217 -80zM277 109q54 0 109 44q-15 35 -19 68q-33 14 -73 14q-41 0 -64 -18.5t-23 -50.5q0 -26 19.5 -41.5t50.5 -15.5zM544 315h188q-5 45 -30.5 71.5t-64.5 26.5q-37 0 -61.5 -26.5t-31.5 -71.5z" />
    <glyph glyph-name="ccedilla" unicode="&#xe7;" horiz-adv-x="569" 
d="M292 -173l-151 64l81 110q-87 28 -140 101.5t-53 167.5q0 117 82 199.5t208 82.5q155 0 231 -121l-129 -96q-41 57 -101 57q-45 0 -75.5 -35.5t-30.5 -86.5q0 -53 30 -88t78 -35q56 0 104 56l127 -92q-75 -110 -204 -122z" />
    <glyph glyph-name="egrave" unicode="&#xe8;" horiz-adv-x="605" 
d="M319 -13q-128 0 -209 78t-81 205q0 120 77 201.5t196 81.5q133 0 203 -84t70 -212q0 -26 -1 -39h-362q23 -89 117 -89q64 0 120 55l105 -87q-87 -110 -235 -110zM209 315h188q-5 45 -30 71.5t-64 26.5q-37 0 -61.5 -26.5t-32.5 -71.5zM244 589l-147 128l177 57l104 -185
h-134z" />
    <glyph glyph-name="eacute" unicode="&#xe9;" horiz-adv-x="605" 
d="M319 -13q-128 0 -209 78t-81 205q0 120 77 201.5t196 81.5q133 0 203 -84t70 -212q0 -26 -1 -39h-362q23 -89 117 -89q64 0 120 55l105 -87q-87 -110 -235 -110zM209 315h188q-5 45 -30 71.5t-64 26.5q-37 0 -61.5 -26.5t-32.5 -71.5zM228 589l104 185l177 -57l-147 -128
h-134z" />
    <glyph glyph-name="ecircumflex" unicode="&#xea;" horiz-adv-x="605" 
d="M319 -13q-128 0 -209 78t-81 205q0 120 77 201.5t196 81.5q133 0 203 -84t70 -212q0 -26 -1 -39h-362q23 -89 117 -89q64 0 120 55l105 -87q-87 -110 -235 -110zM209 315h188q-5 45 -30 71.5t-64 26.5q-37 0 -61.5 -26.5t-32.5 -71.5zM98 585l128 165h154l128 -165h-122
l-84 61l-84 -61h-120z" />
    <glyph glyph-name="edieresis" unicode="&#xeb;" horiz-adv-x="605" 
d="M319 -13q-128 0 -209 78t-81 205q0 120 77 201.5t196 81.5q133 0 203 -84t70 -212q0 -26 -1 -39h-362q23 -89 117 -89q64 0 120 55l105 -87q-87 -110 -235 -110zM209 315h188q-5 45 -30 71.5t-64 26.5q-37 0 -61.5 -26.5t-32.5 -71.5zM111 587v143h165v-143h-165z
M330 587v143h165v-143h-165z" />
    <glyph glyph-name="igrave" unicode="&#xec;" horiz-adv-x="300" 
d="M55 0v541h190v-541h-190zM95 587l-147 128l177 57l104 -185h-134z" />
    <glyph glyph-name="iacute" unicode="&#xed;" horiz-adv-x="300" 
d="M55 0v541h190v-541h-190zM73 587l104 185l177 -57l-147 -128h-134z" />
    <glyph glyph-name="icircumflex" unicode="&#xee;" horiz-adv-x="300" 
d="M55 0v541h190v-541h-190zM-54 587l128 165h154l128 -165h-122l-84 61l-84 -61h-120z" />
    <glyph glyph-name="idieresis" unicode="&#xef;" horiz-adv-x="300" 
d="M55 0v541h190v-541h-190zM-41 587v143h165v-143h-165zM178 587v143h165v-143h-165z" />
    <glyph glyph-name="eth" unicode="&#xf0;" horiz-adv-x="656" 
d="M321 -13q-126 0 -207.5 75.5t-81.5 188.5q0 97 65.5 161.5t172.5 64.5q64 0 108 -27l-80 107l-115 -44l-65 89l117 40l-64 88h202l21 -30l99 37l64 -89l-103 -35l64 -90q54 -78 75.5 -135t21.5 -129q0 -116 -81 -194t-213 -78zM325 146q49 0 78 29.5t29 74.5
q0 42 -30.5 72t-78.5 30q-49 0 -78.5 -29t-29.5 -74q0 -43 31 -73t79 -30z" />
    <glyph glyph-name="ntilde" unicode="&#xf1;" horiz-adv-x="634" 
d="M51 0v541h190v-76q68 88 162 88q86 0 135 -53.5t49 -145.5v-354h-190v293q0 43 -20.5 67t-55.5 24q-36 0 -58 -24t-22 -67v-293h-190zM202 580l-91 25q16 77 45 113t79 36q33 0 88 -19.5t68 -19.5q20 0 30 10.5t21 35.5l91 -25q-16 -77 -45 -113t-79 -36q-33 0 -88 19.5
t-68 19.5q-20 0 -30 -10.5t-21 -35.5z" />
    <glyph glyph-name="ograve" unicode="&#xf2;" horiz-adv-x="656" 
d="M327 -13q-128 0 -213 82.5t-85 200.5q0 117 85.5 200t214.5 83q128 0 213 -82.5t85 -200.5q0 -117 -85.5 -200t-214.5 -83zM329 148q51 0 82 35t31 87q0 50 -33 86t-82 36q-51 0 -82 -35t-31 -87q0 -50 33 -86t82 -36zM267 589l-147 128l177 57l104 -185h-134z" />
    <glyph glyph-name="oacute" unicode="&#xf3;" horiz-adv-x="656" 
d="M327 -13q-128 0 -213 82.5t-85 200.5q0 117 85.5 200t214.5 83q128 0 213 -82.5t85 -200.5q0 -117 -85.5 -200t-214.5 -83zM329 148q51 0 82 35t31 87q0 50 -33 86t-82 36q-51 0 -82 -35t-31 -87q0 -50 33 -86t82 -36zM255 589l104 185l177 -57l-147 -128h-134z" />
    <glyph glyph-name="ocircumflex" unicode="&#xf4;" horiz-adv-x="656" 
d="M327 -13q-128 0 -213 82.5t-85 200.5q0 117 85.5 200t214.5 83q128 0 213 -82.5t85 -200.5q0 -117 -85.5 -200t-214.5 -83zM329 148q51 0 82 35t31 87q0 50 -33 86t-82 36q-51 0 -82 -35t-31 -87q0 -50 33 -86t82 -36zM123 585l128 165h154l128 -165h-122l-84 61l-84 -61
h-120z" />
    <glyph glyph-name="otilde" unicode="&#xf5;" horiz-adv-x="656" 
d="M327 -13q-128 0 -213 82.5t-85 200.5q0 117 85.5 200t214.5 83q128 0 213 -82.5t85 -200.5q0 -117 -85.5 -200t-214.5 -83zM329 148q51 0 82 35t31 87q0 50 -33 86t-82 36q-51 0 -82 -35t-31 -87q0 -50 33 -86t82 -36zM208 580l-91 25q16 77 45 113t79 36q33 0 88 -19.5
t68 -19.5q20 0 30 10.5t21 35.5l91 -25q-16 -77 -45 -113t-79 -36q-34 0 -88.5 19.5t-67.5 19.5q-20 0 -30 -10.5t-21 -35.5z" />
    <glyph glyph-name="odieresis" unicode="&#xf6;" horiz-adv-x="656" 
d="M327 -13q-128 0 -213 82.5t-85 200.5q0 117 85.5 200t214.5 83q128 0 213 -82.5t85 -200.5q0 -117 -85.5 -200t-214.5 -83zM329 148q51 0 82 35t31 87q0 50 -33 86t-82 36q-51 0 -82 -35t-31 -87q0 -50 33 -86t82 -36zM136 587v143h165v-143h-165zM355 587v143h165v-143
h-165z" />
    <glyph glyph-name="divide" unicode="&#xf7;" horiz-adv-x="640" 
d="M228 34v175h178v-175h-178zM74 271v167h491v-167h-491zM228 500v175h178v-175h-178z" />
    <glyph glyph-name="oslash" unicode="&#xf8;" horiz-adv-x="656" 
d="M327 -13q-82 0 -152 38l-28 -30h-133l83 92q-68 77 -68 183q0 117 85.5 200t214.5 83q83 0 151 -38l29 31h133q-63 -69 -83 -92q68 -77 68 -184q0 -117 -85.5 -200t-214.5 -83zM329 140q54 0 87.5 37.5t33.5 92.5q0 25 -10 52l-155 -174q21 -8 44 -8zM216 218l156 173
q-19 9 -45 9q-54 0 -87.5 -37.5t-33.5 -92.5q0 -25 10 -52z" />
    <glyph glyph-name="ugrave" unicode="&#xf9;" horiz-adv-x="634" 
d="M231 -12q-86 0 -135 53t-49 146v354h190v-293q0 -43 21 -67t56 -24t57 24t22 67v293h190v-541h-190v74q-67 -86 -162 -86zM272 587l-147 128l177 57l104 -185h-134z" />
    <glyph glyph-name="uacute" unicode="&#xfa;" horiz-adv-x="634" 
d="M231 -12q-86 0 -135 53t-49 146v354h190v-293q0 -43 21 -67t56 -24t57 24t22 67v293h190v-541h-190v74q-67 -86 -162 -86zM228 587l104 185l177 -57l-147 -128h-134z" />
    <glyph glyph-name="ucircumflex" unicode="&#xfb;" horiz-adv-x="634" 
d="M231 -12q-86 0 -135 53t-49 146v354h190v-293q0 -43 21 -67t56 -24t57 24t22 67v293h190v-541h-190v74q-67 -86 -162 -86zM112 587l128 165h154l128 -165h-122l-84 61l-84 -61h-120z" />
    <glyph glyph-name="udieresis" unicode="&#xfc;" horiz-adv-x="634" 
d="M231 -12q-86 0 -135 53t-49 146v354h190v-293q0 -43 21 -67t56 -24t57 24t22 67v293h190v-541h-190v74q-67 -86 -162 -86zM125 587v143h165v-143h-165zM344 587v143h165v-143h-165z" />
    <glyph glyph-name="yacute" unicode="&#xfd;" horiz-adv-x="626" 
d="M211 -163q-90 0 -174 47l59 133q48 -29 83 -29q28 0 44 22l-212 531h199l108 -326l102 326h195l-198 -528q-36 -96 -81 -136t-125 -40zM226 587l104 185l177 -57l-147 -128h-134z" />
    <glyph glyph-name="thorn" unicode="&#xfe;" horiz-adv-x="676" 
d="M51 -160v890h190v-261q69 84 164 84q100 0 170 -77.5t70 -204.5q0 -128 -69.5 -205.5t-169.5 -77.5q-98 0 -165 78v-226h-190zM347 147q47 0 79 35t32 90q0 53 -32 87.5t-79 34.5q-46 0 -78 -35t-32 -89q0 -53 32 -88t78 -35z" />
    <glyph glyph-name="ydieresis" unicode="&#xff;" horiz-adv-x="626" 
d="M211 -163q-90 0 -174 47l59 133q48 -29 83 -29q28 0 44 22l-212 531h199l108 -326l102 326h195l-198 -528q-36 -96 -81 -136t-125 -40zM120 587v143h165v-143h-165zM339 587v143h165v-143h-165z" />
    <glyph glyph-name="dotlessi" unicode="&#x131;" horiz-adv-x="300" 
d="M55 0v541h190v-541h-190z" />
    <glyph glyph-name="Lslash" unicode="&#x141;" horiz-adv-x="659" 
d="M107 0v245l-76 -22v173l76 22v282h193v-224l177 52v-174l-177 -52v-132h338v-170h-531z" />
    <glyph glyph-name="lslash" unicode="&#x142;" horiz-adv-x="401" 
d="M106 0v264l-82 -24v170l82 24v296h189v-242l82 24v-171l-82 -24v-317h-189z" />
    <glyph glyph-name="OE" unicode="&#x152;" horiz-adv-x="1078" 
d="M433 0q-184 0 -289.5 96t-105.5 252t107 254t292 98h598v-165h-349v-106h314v-153h-314v-111h354v-165h-607zM428 169h66v362h-66q-87 0 -139 -48.5t-52 -133.5q0 -83 52.5 -131.5t138.5 -48.5z" />
    <glyph glyph-name="oe" unicode="&#x153;" horiz-adv-x="1013" 
d="M320 -13q-122 0 -206.5 82.5t-84.5 200.5q0 117 85.5 200t209.5 83q122 0 200 -81q73 81 189 81q131 0 200.5 -84.5t69.5 -211.5q0 -13 -2 -39h-361q23 -89 116 -89q65 0 121 55l105 -87q-88 -110 -232 -110q-130 0 -208 81q-79 -81 -202 -81zM326 148q50 0 80.5 35
t30.5 87q0 50 -32 86t-81 36t-79.5 -35.5t-30.5 -86.5q0 -50 32 -86t80 -36zM617 315h188q-5 45 -30 71.5t-64 26.5q-37 0 -61.5 -26.5t-32.5 -71.5z" />
    <glyph glyph-name="Scaron" unicode="&#x160;" horiz-adv-x="652" 
d="M337 -12q-198 0 -328 116l108 129q105 -84 227 -84q80 0 80 50q0 22 -24 36.5t-94 30.5q-64 15 -105.5 29.5t-81 39t-58.5 62.5t-19 91q0 99 73.5 161.5t197.5 62.5q172 0 288 -93l-97 -137q-98 69 -196 69q-34 0 -52 -13t-18 -34q0 -24 24.5 -38t96.5 -30
q132 -29 196.5 -77.5t64.5 -142.5q0 -106 -77 -167t-206 -61zM243 747l-128 165h122l84 -61l84 61h120l-128 -165h-154z" />
    <glyph glyph-name="scaron" unicode="&#x161;" horiz-adv-x="514" 
d="M266 -12q-145 0 -256 80l71 115q94 -62 186 -62q48 0 48 31q0 15 -19.5 24t-67.5 22q-95 26 -143.5 62.5t-48.5 112.5q0 84 60.5 131.5t156.5 47.5q125 0 223 -63l-65 -120q-90 50 -160 50q-44 0 -44 -28q0 -14 19 -23.5t69 -24.5q46 -13 76 -25.5t59 -32.5t43 -48.5
t14 -67.5q0 -87 -60 -134t-161 -47zM182 587l-128 165h122l84 -61l84 61h120l-128 -165h-154z" />
    <glyph glyph-name="Ydieresis" unicode="&#x178;" horiz-adv-x="723" 
d="M264 0v262l-266 438h221l144 -255l145 255h217l-266 -435v-265h-195zM170 747v143h165v-143h-165zM389 747v143h165v-143h-165z" />
    <glyph glyph-name="Zcaron" unicode="&#x17d;" horiz-adv-x="698" 
d="M40 0v141l351 395h-339v164h607v-141l-351 -395h351v-164h-619zM277 747l-128 165h122l84 -61l84 61h120l-128 -165h-154z" />
    <glyph glyph-name="zcaron" unicode="&#x17e;" horiz-adv-x="563" 
d="M32 0v125l250 265h-241v151h493v-125l-251 -265h251v-151h-502zM207 587l-128 165h122l84 -61l84 61h120l-128 -165h-154z" />
    <glyph glyph-name="florin" unicode="&#x192;" horiz-adv-x="553" 
d="M111 -10q-42 0 -86 10v138q29 -6 47 -6q32 0 47 14.5t22 50.5l23 132h-61v144h86l13 65q16 88 69 130t149 42q64 0 110 -13v-140q-36 9 -67 9q-35 0 -53.5 -14.5t-24.5 -48.5l-5 -30h114v-144h-140l-28 -157q-17 -99 -67 -140.5t-148 -41.5z" />
    <glyph glyph-name="circumflex" unicode="&#x2c6;" 
d="M45 587l128 165h154l128 -165h-122l-84 61l-84 -61h-120z" />
    <glyph glyph-name="caron" unicode="&#x2c7;" 
d="M173 587l-128 165h122l84 -61l84 61h120l-128 -165h-154z" />
    <glyph glyph-name="breve" unicode="&#x2d8;" 
d="M250 585q-84 0 -137 44t-60 123h111q20 -58 86 -58t86 58h111q-7 -79 -60 -123t-137 -44z" />
    <glyph glyph-name="dotaccent" unicode="&#x2d9;" 
d="M165 587v143h170v-143h-170z" />
    <glyph glyph-name="ring" unicode="&#x2da;" 
d="M250 591q-53 0 -93 38.5t-40 90.5q0 51 40 88.5t93 37.5t93 -37.5t40 -90.5q0 -51 -40 -89t-93 -38zM250 652q28 0 47.5 20t19.5 48q0 26 -19.5 45.5t-47.5 19.5t-47.5 -19.5t-19.5 -47.5q0 -27 19.5 -46.5t47.5 -19.5z" />
    <glyph glyph-name="ogonek" unicode="&#x2db;" 
d="M326 -167q-82 0 -125 28.5t-43 80.5q0 34 19 68h122q-5 -18 -5 -34q0 -57 87 -58v-82q-30 -3 -55 -3z" />
    <glyph glyph-name="tilde" unicode="&#x2dc;" 
d="M130 580l-91 25q16 77 45 113t79 36q33 0 88 -19.5t68 -19.5q20 0 30 10.5t21 35.5l91 -25q-16 -77 -45 -113t-79 -36q-33 0 -88 19.5t-68 19.5q-20 0 -30 -10.5t-21 -35.5z" />
    <glyph glyph-name="hungarumlaut" unicode="&#x2dd;" 
d="M30 588l99 184l156 -54l30 54l166 -57l-143 -127h-123l59 108l-120 -108h-124z" />
    <glyph glyph-name="Omega" unicode="&#x3a9;" horiz-adv-x="778" 
d="M51 0v145h173v19q-84 22 -128.5 91.5t-44.5 159.5q0 143 96 221t243 78q143 0 239.5 -79.5t96.5 -218.5q0 -88 -45.5 -161.5t-127.5 -90.5v-19h172v-145h-302v242q62 9 94.5 57.5t32.5 109.5q0 67 -43.5 112.5t-117.5 45.5t-117 -47.5t-43 -115.5q0 -60 31.5 -106.5
t92.5 -55.5v-242h-302z" />
    <glyph glyph-name="pi" unicode="&#x3c0;" 
d="M0 0v700h500v-700h-500zM81 49h339l-170 255zM49 96l171 254l-171 254v-508zM450 96v508l-171 -254zM250 395l170 255h-339z" />
    <glyph glyph-name="afii10023" unicode="&#x401;" horiz-adv-x="667" 
d="M62 0v700h563v-165h-371v-106h336v-153h-336v-111h376v-165h-568zM159 747v143h165v-143h-165zM378 747v143h165v-143h-165z" />
    <glyph glyph-name="afii10051" unicode="&#x402;" horiz-adv-x="860" 
d="M566 -67q-63 0 -113 13l21 168q12 -2 39 -2q95 0 95 84q0 39 -25.5 62t-72.5 23q-71 0 -113 -38v-243h-194v530h-180v170h614v-170h-240v-115q77 45 169 45q111 0 177.5 -65t66.5 -195q0 -132 -66.5 -199.5t-177.5 -67.5z" />
    <glyph glyph-name="afii10052" unicode="&#x403;" horiz-adv-x="586" 
d="M62 0v700h504v-170h-310v-530h-194zM207 747l104 185l177 -57l-147 -128h-134z" />
    <glyph glyph-name="afii10053" unicode="&#x404;" horiz-adv-x="730" 
d="M399 -14q-152 0 -256.5 103.5t-104.5 260.5q0 154 105.5 259t263.5 105q173 0 281 -131l-131 -112q-62 70 -152 70q-57 0 -99 -33t-61 -86h227v-137h-230q17 -57 60 -92t103 -35q87 0 155 76l141 -100q-112 -148 -302 -148z" />
    <glyph glyph-name="afii10054" unicode="&#x405;" horiz-adv-x="652" 
d="M337 -12q-198 0 -328 116l108 129q105 -84 227 -84q80 0 80 50q0 22 -24 36.5t-94 30.5q-64 15 -105.5 29.5t-81 39t-58.5 62.5t-19 91q0 99 73.5 161.5t197.5 62.5q172 0 288 -93l-97 -137q-98 69 -196 69q-34 0 -52 -13t-18 -34q0 -24 24.5 -38t96.5 -30
q132 -29 196.5 -77.5t64.5 -142.5q0 -106 -77 -167t-206 -61z" />
    <glyph glyph-name="afii10055" unicode="&#x406;" horiz-adv-x="327" 
d="M66 0v700h195v-700h-195z" />
    <glyph glyph-name="afii10056" unicode="&#x407;" horiz-adv-x="327" 
d="M66 0v700h195v-700h-195zM-28 747v143h165v-143h-165zM191 747v143h165v-143h-165z" />
    <glyph glyph-name="afii10057" unicode="&#x408;" horiz-adv-x="564" 
d="M250 -12q-160 0 -246 118l125 118q54 -65 109 -65q38 0 59 25t21 73v443h193v-444q0 -128 -69 -197q-71 -71 -192 -71z" />
    <glyph glyph-name="afii10058" unicode="&#x409;" horiz-adv-x="1106" 
d="M102 -10q-68 0 -116 16l13 149q18 -4 45 -4q20 0 33 6t28.5 31.5t24.5 72t15 133t6 209.5v97h538v-220h106q131 0 211 -61.5t80 -176.5q0 -113 -76 -177.5t-205 -64.5h-310v530h-163v-27q0 -125 -11 -217t-30.5 -148.5t-49.5 -90t-62.5 -45.5t-76.5 -12zM689 163h101
q49 0 75.5 21.5t26.5 62.5q0 37 -27 59t-74 22h-102v-165z" />
    <glyph glyph-name="afii10059" unicode="&#x40a;" horiz-adv-x="1116" 
d="M62 0v700h194v-246h249v246h194v-246h116q127 0 204 -57.5t77 -167.5q0 -108 -73 -168.5t-198 -60.5h-320v282h-249v-282h-194zM699 163h111q44 0 68 19t24 55q0 33 -24.5 52t-66.5 19h-112v-145z" />
    <glyph glyph-name="afii10060" unicode="&#x40b;" horiz-adv-x="860" 
d="M203 0v530h-180v170h614v-170h-240v-115q77 45 169 45q109 0 176.5 -60.5t67.5 -168.5v-231h-194v150q0 131 -96 131q-81 0 -123 -38v-243h-194z" />
    <glyph glyph-name="afii10061" unicode="&#x40c;" horiz-adv-x="730" 
d="M62 0v700h194v-284l241 284h230l-265 -301l274 -399h-233l-176 260l-71 -79v-181h-194zM294 747l104 185l177 -57l-147 -128h-134z" />
    <glyph glyph-name="afii10062" unicode="&#x40e;" horiz-adv-x="736" 
d="M226 -10q-89 0 -168 47l76 140q36 -24 79 -24q35 0 61 30l-274 517h216l159 -329l150 329h211l-273 -534q-48 -95 -102.5 -135.5t-134.5 -40.5zM375 745q-72 0 -118.5 40t-57.5 113l106 19q22 -60 70 -60q49 0 71 60l106 -19q-11 -73 -57.5 -113t-119.5 -40z" />
    <glyph glyph-name="afii10145" unicode="&#x40f;" horiz-adv-x="751" 
d="M280 -140v140h-218v700h194v-530h239v530h194v-700h-223v-140h-186z" />
    <glyph glyph-name="afii10017" unicode="&#x410;" horiz-adv-x="795" 
d="M6 0l298 705h187l298 -705h-208l-51 125h-270l-50 -125h-204zM317 276h157l-78 199z" />
    <glyph glyph-name="afii10018" unicode="&#x411;" horiz-adv-x="700" 
d="M62 0v700h563v-165h-369v-81h135q127 0 204 -57.5t77 -167.5q0 -108 -73 -168.5t-198 -60.5h-339zM256 163h130q44 0 68 19t24 55q0 33 -24.5 52t-66.5 19h-131v-145z" />
    <glyph glyph-name="afii10019" unicode="&#x412;" horiz-adv-x="715" 
d="M62 0v700h359q128 0 191 -63q45 -45 45 -115q0 -109 -108 -156q68 -22 103.5 -63t35.5 -110q0 -90 -70 -141.5t-195 -51.5h-361zM251 156h150q93 0 93 66q0 63 -95 63h-148v-129zM251 421h122q92 0 92 63q0 60 -88 60h-126v-123z" />
    <glyph glyph-name="afii10020" unicode="&#x413;" horiz-adv-x="586" 
d="M62 0v700h504v-170h-310v-530h-194z" />
    <glyph glyph-name="afii10021" unicode="&#x414;" horiz-adv-x="770" 
d="M10 -140v310h62q38 102 54.5 213t16.5 299v18h533v-530h79l-22 -310h-164v140h-372l-13 -140h-174zM275 170h207v360h-152v-7q0 -188 -55 -353z" />
    <glyph glyph-name="afii10022" unicode="&#x415;" horiz-adv-x="667" 
d="M62 0v700h563v-165h-371v-106h336v-153h-336v-111h376v-165h-568z" />
    <glyph glyph-name="afii10024" unicode="&#x416;" horiz-adv-x="1096" 
d="M-6 0l258 405l-249 295h227l221 -284v284h194v-284l221 284h227l-249 -295l258 -405h-230l-160 264l-67 -78v-186h-194v186l-67 78l-160 -264h-230z" />
    <glyph glyph-name="afii10025" unicode="&#x417;" horiz-adv-x="640" 
d="M332 -13q-111 0 -183 29.5t-138 87.5l101 129q83 -83 197 -83q52 0 79.5 19t27.5 50q0 62 -112 62h-73v144h71q99 0 99 64q0 27 -24 44t-64 17q-45 0 -96 -19.5t-84 -49.5l-96 114q121 119 293 119q116 0 189 -53.5t73 -135.5q0 -110 -105 -159q123 -42 123 -162
q0 -95 -75.5 -156t-202.5 -61z" />
    <glyph glyph-name="afii10026" unicode="&#x418;" horiz-adv-x="768" 
d="M62 0v700h192v-394l271 394h181v-700h-192v394l-271 -394h-181z" />
    <glyph glyph-name="afii10027" unicode="&#x419;" horiz-adv-x="768" 
d="M62 0v700h192v-394l271 394h181v-700h-192v394l-271 -394h-181zM390 745q-72 0 -118.5 40t-57.5 113l106 19q22 -60 70 -60q49 0 71 60l106 -19q-11 -73 -57.5 -113t-119.5 -40z" />
    <glyph glyph-name="afii10028" unicode="&#x41a;" horiz-adv-x="730" 
d="M62 0v700h194v-284l241 284h230l-265 -301l274 -399h-233l-176 260l-71 -79v-181h-194z" />
    <glyph glyph-name="afii10029" unicode="&#x41b;" horiz-adv-x="751" 
d="M102 -10q-68 0 -116 16l13 149q18 -4 45 -4q20 0 33 6t28.5 31.5t24.5 72t15 133t6 209.5v97h538v-700h-194v530h-163v-27q0 -125 -11 -217t-30.5 -148.5t-49.5 -90t-62.5 -45.5t-76.5 -12z" />
    <glyph glyph-name="afii10030" unicode="&#x41c;" horiz-adv-x="868" 
d="M62 0v700h205l167 -271l167 271h205v-700h-193v402l-179 -274h-4l-178 272v-400h-190z" />
    <glyph glyph-name="afii10031" unicode="&#x41d;" horiz-adv-x="761" 
d="M62 0v700h194v-262h249v262h194v-700h-194v266h-249v-266h-194z" />
    <glyph glyph-name="afii10032" unicode="&#x41e;" horiz-adv-x="831" 
d="M414 -14q-161 0 -268.5 105.5t-107.5 258.5q0 152 108.5 258t269.5 106t268.5 -105.5t107.5 -258.5q0 -152 -108.5 -258t-269.5 -106zM416 161q79 0 128.5 55t49.5 134q0 78 -51 133.5t-129 55.5t-127.5 -55t-49.5 -134q0 -78 50.5 -133.5t128.5 -55.5z" />
    <glyph glyph-name="afii10033" unicode="&#x41f;" horiz-adv-x="751" 
d="M62 0v700h627v-700h-194v530h-239v-530h-194z" />
    <glyph glyph-name="afii10034" unicode="&#x420;" horiz-adv-x="673" 
d="M62 0v700h300q134 0 212.5 -65.5t78.5 -182.5q0 -120 -83 -186t-218 -66h-96v-200h-194zM256 352h92q52 0 81.5 25t29.5 68q0 45 -29.5 68.5t-82.5 23.5h-91v-185z" />
    <glyph glyph-name="afii10035" unicode="&#x421;" horiz-adv-x="730" 
d="M399 -14q-152 0 -256.5 103.5t-104.5 260.5q0 154 105.5 259t263.5 105q187 0 294 -148l-142 -110q-65 81 -154 81q-73 0 -120 -54t-47 -133q0 -80 47 -133.5t120 -53.5q51 0 87 21.5t71 63.5l146 -104q-55 -75 -128 -116.5t-182 -41.5z" />
    <glyph glyph-name="afii10036" unicode="&#x422;" horiz-adv-x="660" 
d="M233 0v530h-210v170h614v-170h-210v-530h-194z" />
    <glyph glyph-name="afii10037" unicode="&#x423;" horiz-adv-x="736" 
d="M226 -10q-89 0 -168 47l76 140q36 -24 79 -24q35 0 61 30l-274 517h216l159 -329l150 329h211l-273 -534q-48 -95 -102.5 -135.5t-134.5 -40.5z" />
    <glyph glyph-name="afii10038" unicode="&#x424;" horiz-adv-x="957" 
d="M381 -30v78q-166 0 -260.5 87.5t-94.5 226.5q0 136 95 221t260 85v62h195v-62q165 0 260 -85t95 -221q0 -139 -94.5 -226.5t-260.5 -87.5v-78h-195zM381 220v276q-70 0 -113 -36.5t-43 -100.5q0 -66 42.5 -102.5t113.5 -36.5zM576 220q71 0 113.5 36.5t42.5 102.5
q0 64 -43 100.5t-113 36.5v-276z" />
    <glyph glyph-name="afii10039" unicode="&#x425;" horiz-adv-x="732" 
d="M11 0l240 356l-230 344h223l124 -197l125 197h218l-230 -342l240 -358h-223l-134 211l-135 -211h-218z" />
    <glyph glyph-name="afii10040" unicode="&#x426;" horiz-adv-x="772" 
d="M582 -140v140h-520v700h194v-530h239v530h194v-530h79l-22 -310h-164z" />
    <glyph glyph-name="afii10041" unicode="&#x427;" horiz-adv-x="711" 
d="M455 0v245q-77 -45 -179 -45q-110 0 -172 62t-62 172v266h194v-211q0 -57 22.5 -83.5t73.5 -26.5q76 0 123 38v283h194v-700h-194z" />
    <glyph glyph-name="afii10042" unicode="&#x428;" horiz-adv-x="1104" 
d="M62 0v700h194v-530h199v530h194v-530h199v530h194v-700h-980z" />
    <glyph glyph-name="afii10043" unicode="&#x429;" horiz-adv-x="1125" 
d="M935 -140v140h-873v700h194v-530h199v530h194v-530h199v530h194v-530h79l-22 -310h-164z" />
    <glyph glyph-name="afii10044" unicode="&#x42a;" horiz-adv-x="790" 
d="M179 0v530h-159v170h353v-220h106q131 0 211 -61.5t80 -176.5q0 -113 -76 -177.5t-205 -64.5h-310zM373 163h101q49 0 75.5 21.5t26.5 62.5q0 37 -27 59t-74 22h-102v-165z" />
    <glyph glyph-name="afii10045" unicode="&#x42b;" horiz-adv-x="991" 
d="M62 0v700h194v-220h106q131 0 211 -61.5t80 -176.5q0 -113 -76 -177.5t-205 -64.5h-310zM256 163h101q49 0 75.5 21.5t26.5 62.5q0 37 -27 59t-74 22h-102v-165zM735 0v700h194v-700h-194z" />
    <glyph glyph-name="afii10046" unicode="&#x42c;" horiz-adv-x="673" 
d="M62 0v700h194v-220h106q131 0 211 -61.5t80 -176.5q0 -113 -76 -177.5t-205 -64.5h-310zM256 163h101q49 0 75.5 21.5t26.5 62.5q0 37 -27 59t-74 22h-102v-165z" />
    <glyph glyph-name="afii10047" unicode="&#x42d;" horiz-adv-x="730" 
d="M330 -14q-190 0 -302 148l141 100q68 -76 155 -76q59 0 102 35t60 92h-229v137h227q-19 53 -61 86t-99 33q-90 0 -152 -70l-131 112q108 131 281 131q158 0 263.5 -105t105.5 -259q0 -157 -104.5 -260.5t-256.5 -103.5z" />
    <glyph glyph-name="afii10048" unicode="&#x42e;" horiz-adv-x="1080" 
d="M684 -14q-132 0 -226.5 78.5t-120.5 201.5h-81v-266h-194v700h194v-262h82q28 121 122.5 198.5t225.5 77.5q155 0 255 -105t100 -259q0 -152 -101 -258t-256 -106zM686 160q70 0 114 54t44 136q0 80 -45 135t-115 55t-113.5 -54.5t-43.5 -135.5q0 -80 44.5 -135
t114.5 -55z" />
    <glyph glyph-name="afii10049" unicode="&#x42f;" horiz-adv-x="736" 
d="M30 0l167 244q-144 61 -144 217q0 117 81.5 178t208.5 61h331v-700h-194v212h-85l-141 -212h-224zM352 361h128v174h-127q-49 0 -77 -23t-28 -65q0 -39 27.5 -62.5t76.5 -23.5z" />
    <glyph glyph-name="afii10065" unicode="&#x430;" horiz-adv-x="599" 
d="M206 -12q-80 0 -131 44.5t-51 124.5q0 82 57 126t155 44q71 0 130 -21v9q0 88 -108 88q-73 0 -149 -30l-39 134q102 42 219 42q140 0 206 -66q58 -57 58 -172v-311h-188v56q-61 -68 -159 -68zM274 107q42 0 68 24.5t26 64.5v25q-33 14 -74 14t-64 -18.5t-23 -50.5
q0 -27 18.5 -43t48.5 -16z" />
    <glyph glyph-name="afii10066" unicode="&#x431;" horiz-adv-x="656" 
d="M337 -13q-289 0 -289 335q0 53 4.5 96t19.5 91.5t40.5 83t70.5 61.5t106 37l276 45l23 -147l-284 -52q-44 -8 -73 -30.5t-38 -41.5t-10 -37q15 25 64.5 52.5t121.5 27.5q106 0 182 -68.5t76 -177.5q0 -115 -83 -195t-207 -80zM339 148q46 0 74.5 32t28.5 80q0 46 -30 79
t-75 33q-46 0 -74.5 -32t-28.5 -80q0 -46 30 -79t75 -33z" />
    <glyph glyph-name="afii10067" unicode="&#x432;" horiz-adv-x="609" 
d="M51 0v541h321q99 0 148 -49q35 -33 35 -88q0 -84 -84 -121q52 -17 77.5 -48.5t25.5 -85.5q0 -70 -54 -109.5t-151 -39.5h-318zM236 123h78q33 0 51.5 13.5t18.5 37.5q0 22 -18.5 36t-53.5 14h-76v-101zM236 326h64q32 0 50 13t18 35q0 21 -17 33.5t-48 12.5h-67v-94z" />
    <glyph glyph-name="afii10068" unicode="&#x433;" horiz-adv-x="469" 
d="M51 0v541h408v-153h-218v-388h-190z" />
    <glyph glyph-name="afii10069" unicode="&#x434;" horiz-adv-x="653" 
d="M10 -110v263h50q25 72 36.5 151t11.5 211v26h482v-388h63l-18 -263h-162v110h-283l-10 -110h-170zM254 153h145v237h-110v-9q-3 -120 -35 -228z" />
    <glyph glyph-name="afii10070" unicode="&#x435;" horiz-adv-x="605" 
d="M319 -13q-128 0 -209 78t-81 205q0 120 77 201.5t196 81.5q133 0 203 -84t70 -212q0 -26 -1 -39h-362q23 -89 117 -89q64 0 120 55l105 -87q-87 -110 -235 -110zM209 315h188q-5 45 -30 71.5t-64 26.5q-37 0 -61.5 -26.5t-32.5 -71.5z" />
    <glyph glyph-name="afii10072" unicode="&#x436;" horiz-adv-x="914" 
d="M-5 0l190 319l-185 222h215l147 -201v201h190v-201l147 201h215l-186 -222l191 -319h-209l-110 185l-48 -58v-127h-190v127l-49 58l-109 -185h-209z" />
    <glyph glyph-name="afii10073" unicode="&#x437;" horiz-adv-x="543" 
d="M244 -14q-81 0 -132.5 16.5t-106.5 58.5l75 118q31 -24 79.5 -39t82.5 -15q77 0 77 43q0 45 -75 45h-68v119h67q63 0 63 46q0 15 -17 26t-48 11q-36 0 -78 -15.5t-68 -38.5l-76 104q95 88 246 88q108 0 168 -41t60 -106q0 -86 -86 -123q101 -35 101 -126
q0 -77 -65.5 -124t-198.5 -47z" />
    <glyph glyph-name="afii10074" unicode="&#x438;" horiz-adv-x="641" 
d="M51 0v541h184v-271l180 271h175v-541h-184v271l-180 -271h-175z" />
    <glyph glyph-name="afii10075" unicode="&#x439;" horiz-adv-x="641" 
d="M51 0v541h184v-271l180 271h175v-541h-184v271l-180 -271h-175zM325 585q-68 0 -111.5 39t-53.5 110l99 18q20 -58 66 -58t66 58l99 -18q-10 -71 -53.5 -110t-111.5 -39z" />
    <glyph glyph-name="afii10076" unicode="&#x43a;" horiz-adv-x="603" 
d="M51 0v541h190v-201l147 201h215l-185 -222l190 -319h-209l-103 173l-55 -66v-107h-190z" />
    <glyph glyph-name="afii10077" unicode="&#x43b;" horiz-adv-x="638" 
d="M94 -7q-38 0 -84 8l8 147q21 -3 31 -3q13 0 21 3.5t18.5 19.5t16.5 46t10.5 86.5t4.5 136.5v104h467v-541h-190v390h-100v-14q0 -96 -10.5 -165.5t-27.5 -111t-44 -66t-55 -32.5t-66 -8z" />
    <glyph glyph-name="afii10078" unicode="&#x43c;" horiz-adv-x="739" 
d="M51 0v541h193l125 -187l126 187h193v-541h-190v267l-132 -184l-128 180v-263h-187z" />
    <glyph glyph-name="afii10079" unicode="&#x43d;" horiz-adv-x="638" 
d="M51 0v541h190v-192h156v192h190v-541h-190v196h-156v-196h-190z" />
    <glyph glyph-name="afii10080" unicode="&#x43e;" horiz-adv-x="656" 
d="M327 -13q-128 0 -213 82.5t-85 200.5q0 117 85.5 200t214.5 83q128 0 213 -82.5t85 -200.5q0 -117 -85.5 -200t-214.5 -83zM329 148q51 0 82 35t31 87q0 50 -33 86t-82 36q-51 0 -82 -35t-31 -87q0 -50 33 -86t82 -36z" />
    <glyph glyph-name="afii10081" unicode="&#x43f;" horiz-adv-x="630" 
d="M51 0v541h528v-541h-190v388h-148v-388h-190z" />
    <glyph glyph-name="afii10082" unicode="&#x440;" horiz-adv-x="676" 
d="M51 -160v701h190v-72q69 84 164 84q100 0 170 -77.5t70 -204.5q0 -128 -69.5 -205.5t-169.5 -77.5q-98 0 -165 78v-226h-190zM347 147q47 0 79 35t32 90q0 53 -32 87.5t-79 34.5q-46 0 -78 -35t-32 -89q0 -53 32 -88t78 -35z" />
    <glyph glyph-name="afii10083" unicode="&#x441;" horiz-adv-x="569" 
d="M312 -13q-121 0 -202 82.5t-81 200.5q0 117 82 199.5t208 82.5q155 0 231 -121l-127 -92q-38 53 -98 53q-51 0 -81 -35t-30 -87q0 -53 30 -88t78 -35q32 0 54.5 14t47.5 43l129 -93q-84 -124 -241 -124z" />
    <glyph glyph-name="afii10084" unicode="&#x442;" horiz-adv-x="526" 
d="M168 0v388h-158v153h506v-153h-158v-388h-190z" />
    <glyph glyph-name="afii10085" unicode="&#x443;" horiz-adv-x="626" 
d="M211 -163q-90 0 -174 47l59 133q48 -29 83 -29q28 0 44 22l-212 531h199l108 -326l102 326h195l-198 -528q-36 -96 -81 -136t-125 -40z" />
    <glyph glyph-name="afii10086" unicode="&#x444;" horiz-adv-x="898" 
d="M354 -160v185q-52 -34 -105 -34q-98 0 -158.5 75.5t-60.5 206.5q0 128 61 202.5t159 74.5q54 0 104 -39v189h190v-189q48 39 104 39q98 0 159 -75t61 -204q0 -130 -60.5 -205t-158.5 -75q-55 0 -105 34v-185h-190zM308 144q26 0 46 10v232q-22 11 -46 11q-45 0 -68 -35
t-23 -92t23 -91.5t68 -34.5zM590 144q45 0 68 34.5t23 93.5q0 56 -23 90.5t-68 34.5q-24 0 -46 -11v-232q20 -10 46 -10z" />
    <glyph glyph-name="afii10087" unicode="&#x445;" horiz-adv-x="589" 
d="M8 0l182 273l-179 268h205l80 -133l80 133h201l-178 -267l182 -274h-204l-84 139l-85 -139h-200z" />
    <glyph glyph-name="afii10088" unicode="&#x446;" horiz-adv-x="642" 
d="M462 -110v110h-411v541h190v-388h148v388h190v-388h63l-18 -263h-162z" />
    <glyph glyph-name="afii10089" unicode="&#x447;" horiz-adv-x="613" 
d="M372 0v174q-53 -24 -134 -24q-85 0 -138.5 48t-53.5 133v210h191v-153q0 -83 57 -83q50 0 78 21v215h190v-541h-190z" />
    <glyph glyph-name="afii10090" unicode="&#x448;" horiz-adv-x="938" 
d="M51 0v541h190v-388h133v388h190v-388h133v388h190v-541h-836z" />
    <glyph glyph-name="afii10091" unicode="&#x449;" horiz-adv-x="950" 
d="M770 -110v110h-719v541h190v-388h133v388h190v-388h133v388h190v-388h63l-18 -263h-162z" />
    <glyph glyph-name="afii10092" unicode="&#x44a;" horiz-adv-x="661" 
d="M136 0v388h-131v153h321v-170h92q100 0 161.5 -47.5t61.5 -136.5q0 -87 -58 -137t-157 -50h-290zM326 134h59q73 0 73 59q0 26 -19.5 41t-53.5 15h-59v-115z" />
    <glyph glyph-name="afii10093" unicode="&#x44b;" horiz-adv-x="858" 
d="M617 0v541h190v-541h-190zM51 0v541h190v-170h92q100 0 161.5 -47.5t61.5 -136.5q0 -87 -58 -137t-157 -50h-290zM241 134h59q73 0 73 59q0 26 -19.5 41t-53.5 15h-59v-115z" />
    <glyph glyph-name="afii10094" unicode="&#x44c;" horiz-adv-x="576" 
d="M51 0v541h190v-170h92q100 0 161.5 -47.5t61.5 -136.5q0 -87 -58 -137t-157 -50h-290zM241 134h59q73 0 73 59q0 26 -19.5 41t-53.5 15h-59v-115z" />
    <glyph glyph-name="afii10095" unicode="&#x44d;" horiz-adv-x="558" 
d="M246 -13q-152 0 -236 117l118 87q49 -54 108 -54q38 0 66.5 21t41.5 57h-146v109h146q-13 35 -41.5 56.5t-64.5 21.5q-68 0 -110 -54l-113 93q76 111 224 111q126 0 208 -82.5t82 -199.5q0 -118 -81 -200.5t-202 -82.5z" />
    <glyph glyph-name="afii10096" unicode="&#x44e;" horiz-adv-x="904" 
d="M586 -13q-107 0 -181 59t-98 154h-66v-200h-190v541h190v-196h68q26 92 100 150t179 58q127 0 207 -81.5t80 -201.5q0 -118 -80.5 -200.5t-208.5 -82.5zM588 148q50 0 76 34.5t26 87.5q0 52 -28 87t-76 35q-50 0 -76 -34.5t-26 -87.5q0 -52 28 -87t76 -35z" />
    <glyph glyph-name="afii10097" unicode="&#x44f;" horiz-adv-x="619" 
d="M13 0l127 188q-100 48 -100 164q0 82 50 129q57 60 177 60h301v-541h-191v156h-43l-104 -156h-217zM302 288h75v110h-75q-70 0 -70 -56q0 -54 70 -54z" />
    <glyph glyph-name="afii10071" unicode="&#x451;" horiz-adv-x="605" 
d="M319 -13q-128 0 -209 78t-81 205q0 120 77 201.5t196 81.5q133 0 203 -84t70 -212q0 -26 -1 -39h-362q23 -89 117 -89q64 0 120 55l105 -87q-87 -110 -235 -110zM209 315h188q-5 45 -30 71.5t-64 26.5q-37 0 -61.5 -26.5t-32.5 -71.5zM110 587v143h165v-143h-165z
M329 587v143h165v-143h-165z" />
    <glyph glyph-name="afii10099" unicode="&#x452;" horiz-adv-x="634" 
d="M403 -14q-60 0 -107 14l10 153q5 -1 15 -1q35 0 55.5 24t20.5 67t-20.5 67t-55.5 24q-36 0 -58 -24t-22 -67v-243h-190v541h-63v128h63v61h190v-61h157v-128h-157v-124q67 86 162 86q86 0 135 -53.5t49 -145.5v-119q0 -93 -49 -146t-135 -53z" />
    <glyph glyph-name="afii10100" unicode="&#x453;" horiz-adv-x="469" 
d="M51 0v541h408v-153h-218v-388h-190zM144 587l104 185l177 -57l-147 -128h-134z" />
    <glyph glyph-name="afii10101" unicode="&#x454;" horiz-adv-x="558" 
d="M312 -13q-121 0 -202 82.5t-81 200.5q0 117 82 199.5t208 82.5q148 0 224 -111l-113 -93q-42 54 -110 54q-37 0 -65 -21.5t-42 -56.5h147v-109h-147q13 -36 42 -57t67 -21q59 0 108 54l118 -87q-84 -117 -236 -117z" />
    <glyph glyph-name="afii10102" unicode="&#x455;" horiz-adv-x="514" 
d="M266 -12q-145 0 -256 80l71 115q94 -62 186 -62q48 0 48 31q0 15 -19.5 24t-67.5 22q-95 26 -143.5 62.5t-48.5 112.5q0 84 60.5 131.5t156.5 47.5q125 0 223 -63l-65 -120q-90 50 -160 50q-44 0 -44 -28q0 -14 19 -23.5t69 -24.5q46 -13 76 -25.5t59 -32.5t43 -48.5
t14 -67.5q0 -87 -60 -134t-161 -47z" />
    <glyph glyph-name="afii10103" unicode="&#x456;" horiz-adv-x="300" 
d="M55 0v541h190v-541h-190zM51 590v140h198v-140h-198z" />
    <glyph glyph-name="afii10104" unicode="&#x457;" horiz-adv-x="300" 
d="M-42 587v143h165v-143h-165zM177 587v143h165v-143h-165zM55 0v541h190v-541h-190z" />
    <glyph glyph-name="afii10105" unicode="&#x458;" horiz-adv-x="302" 
d="M52 -163q-24 0 -78 7v126q8 -1 25 -1q29 0 42.5 14.5t13.5 48.5v509h190v-517q0 -99 -48.5 -143t-144.5 -44zM51 590v140h198v-140h-198z" />
    <glyph glyph-name="afii10106" unicode="&#x459;" horiz-adv-x="922" 
d="M397 0v390h-100v-14q0 -96 -10.5 -165.5t-27.5 -111t-44 -66t-55 -32.5t-66 -8t-84 8l8 147q21 -3 31 -3q13 0 21 3.5t18.5 19.5t16.5 46t10.5 86.5t4.5 136.5v104h467v-170h92q100 0 161.5 -47.5t61.5 -136.5q0 -87 -58 -137t-157 -50h-290zM587 134h59q73 0 73 59
q0 26 -19.5 41t-53.5 15h-59v-115z" />
    <glyph glyph-name="afii10107" unicode="&#x45a;" horiz-adv-x="922" 
d="M51 0v541h190v-172h156v172h190v-172h87q103 0 165.5 -46.5t62.5 -136.5q0 -88 -59 -137t-161 -49h-285v226h-156v-226h-190zM587 136h59q73 0 73 54q0 51 -73 51h-59v-105z" />
    <glyph glyph-name="afii10108" unicode="&#x45b;" horiz-adv-x="634" 
d="M51 0v541h-63v128h63v61h190v-61h157v-128h-157v-124q67 86 162 86q86 0 135 -53.5t49 -145.5v-304h-190v243q0 43 -20.5 67t-55.5 24q-36 0 -58 -24t-22 -67v-243h-190z" />
    <glyph glyph-name="afii10109" unicode="&#x45c;" horiz-adv-x="603" 
d="M51 0v541h190v-201l147 201h215l-185 -222l190 -319h-209l-103 173l-55 -66v-107h-190zM211 587l104 185l177 -57l-147 -128h-134z" />
    <glyph glyph-name="afii10110" unicode="&#x45e;" horiz-adv-x="626" 
d="M211 -163q-90 0 -174 47l59 133q48 -29 83 -29q28 0 44 22l-212 531h199l108 -326l102 326h195l-198 -528q-36 -96 -81 -136t-125 -40zM318 585q-68 0 -111.5 39t-53.5 110l99 18q20 -58 66 -58t66 58l99 -18q-10 -71 -53.5 -110t-111.5 -39z" />
    <glyph glyph-name="afii10193" unicode="&#x45f;" horiz-adv-x="630" 
d="M224 -110v110h-173v541h190v-388h148v388h190v-541h-175v-110h-180z" />
    <glyph glyph-name="afii10050" unicode="&#x490;" horiz-adv-x="586" 
d="M62 0v700h318v140h164l22 -310h-310v-530h-194z" />
    <glyph glyph-name="afii10098" unicode="&#x491;" horiz-adv-x="469" 
d="M51 0v541h228v110h162l18 -263h-218v-388h-190z" />
    <glyph glyph-name="endash" unicode="&#x2013;" horiz-adv-x="528" 
d="M40 231v163h448v-163h-448z" />
    <glyph glyph-name="emdash" unicode="&#x2014;" horiz-adv-x="898" 
d="M40 231v163h818v-163h-818z" />
    <glyph glyph-name="quoteleft" unicode="&#x2018;" horiz-adv-x="284" 
d="M40 343v159q0 106 52.5 153t152.5 50l16 -73q-100 -12 -100 -88v-6h76v-195h-197z" />
    <glyph glyph-name="quoteright" unicode="&#x2019;" horiz-adv-x="284" 
d="M39 338l-16 73q100 11 100 88v6h-76v195h197v-159q0 -106 -52.5 -153t-152.5 -50z" />
    <glyph glyph-name="quotesinglbase" unicode="&#x201a;" horiz-adv-x="284" 
d="M35 -167l-15 73q100 12 100 90v4h-77v195h198v-159q0 -106 -53 -153t-153 -50z" />
    <glyph glyph-name="quotedblleft" unicode="&#x201c;" horiz-adv-x="547" 
d="M40 343v159q0 104 52 152t151 51l15 -73q-97 -12 -97 -87v-7h74v-195h-195zM305 343v159q0 104 52.5 152t150.5 51l16 -73q-98 -12 -98 -89v-5h74v-195h-195z" />
    <glyph glyph-name="quotedblright" unicode="&#x201d;" horiz-adv-x="547" 
d="M39 338l-16 73q98 11 98 89v5h-74v195h195v-159q0 -105 -52 -152.5t-151 -50.5zM305 338l-16 73q98 11 98 89v5h-75v195h195v-159q0 -105 -52 -152.5t-150 -50.5z" />
    <glyph glyph-name="quotedblbase" unicode="&#x201e;" horiz-adv-x="546" 
d="M35 -167l-15 73q97 12 97 87v7h-74v195h195v-159q0 -105 -52 -152.5t-151 -50.5zM301 -167l-15 73q97 12 97 87v7h-74v195h195v-159q0 -105 -52 -152.5t-151 -50.5z" />
    <glyph glyph-name="dagger" unicode="&#x2020;" horiz-adv-x="410" 
d="M155 223l10 270l-125 -13v104l124 -13l-15 129h112l-15 -129l124 13v-104l-125 13l10 -270h-100z" />
    <glyph glyph-name="daggerdbl" unicode="&#x2021;" horiz-adv-x="430" 
d="M159 0l15 129l-124 -13v104l126 -13l-13 143l13 143l-126 -13v104l124 -13l-15 129h112l-15 -129l124 13v-104l-126 13l13 -143l-13 -143l126 13v-104l-124 13l15 -129h-112z" />
    <glyph glyph-name="bullet" unicode="&#x2022;" 
d="M250 183q-70 0 -119.5 49.5t-49.5 120.5q0 70 49.5 119t119.5 49t119.5 -49.5t49.5 -120.5q0 -70 -49.5 -119t-119.5 -49z" />
    <glyph glyph-name="ellipsis" unicode="&#x2026;" horiz-adv-x="840" 
d="M43 0v192h194v-192h-194zM323 0v192h194v-192h-194zM603 0v192h194v-192h-194z" />
    <glyph glyph-name="perthousand" unicode="&#x2030;" horiz-adv-x="1295" 
d="M112 0l540 700h135l-540 -700h-135zM683 -10q-79 0 -129.5 54.5t-50.5 134.5q0 79 50 133.5t131 54.5q80 0 130 -54.5t50 -134.5q0 -78 -51 -133t-130 -55zM684 100q25 0 41.5 22t16.5 57q0 34 -16.5 56t-42.5 22q-27 0 -42.5 -21.5t-15.5 -57.5q0 -33 17 -55.5t42 -22.5
zM1079 -10q-79 0 -129.5 54.5t-50.5 134.5q0 79 50 133.5t131 54.5q80 0 130 -54.5t50 -134.5q0 -78 -51 -133t-130 -55zM1080 100q25 0 41.5 22t16.5 57q0 34 -16.5 56t-42.5 22q-27 0 -42.5 -21.5t-15.5 -57.5q0 -33 17 -55.5t42 -22.5zM215 333q-80 0 -130 54.5
t-50 134.5q0 79 50 133.5t131 54.5q80 0 130 -54.5t50 -134.5q0 -79 -51 -133.5t-130 -54.5zM216 443q25 0 41.5 22t16.5 57q0 33 -17 55.5t-42 22.5q-26 0 -42 -22t-16 -57q0 -34 17 -56t42 -22z" />
    <glyph glyph-name="guilsinglleft" unicode="&#x2039;" horiz-adv-x="357" 
d="M190 30l-160 214v48l160 214l137 -67l-130 -171l130 -170z" />
    <glyph glyph-name="guilsinglright" unicode="&#x203a;" horiz-adv-x="357" 
d="M167 30l-137 67l130 171l-130 170l137 68l160 -214v-48z" />
    <glyph glyph-name="fraction" unicode="&#x2044;" horiz-adv-x="501" 
d="M-73 -98l466 856h158l-465 -856h-159z" />
    <glyph glyph-name="Euro" unicode="&#x20ac;" horiz-adv-x="682" 
d="M421 -14q-118 0 -197.5 64.5t-105.5 172.5h-81v104h68q-1 7 -1 23q0 18 1 27h-68v104h84q28 103 106.5 168t194.5 65q152 0 240 -113l-123 -115q-49 62 -116 62q-76 0 -109 -70h156v-101h-178q-1 -8 -1 -27q0 -15 1 -23h178v-101h-158q35 -74 115 -74q64 0 118 66
l120 -113q-92 -119 -244 -119z" />
    <glyph glyph-name="afii61352" unicode="&#x2116;" horiz-adv-x="1098" 
d="M62 0v700h181l218 -350v350h202v-700h-170l-229 364v-364h-202zM746 110v117h302v-117h-302zM896 273q-71 0 -115.5 48.5t-44.5 118.5q0 72 44.5 121t116.5 49q71 0 115.5 -48.5t44.5 -118.5q0 -72 -45 -121t-116 -49zM897 371q22 0 36 20t14 51q0 29 -14.5 49.5
t-36.5 20.5t-36 -20t-14 -51q0 -30 14.5 -50t36.5 -20z" />
    <glyph glyph-name="published" unicode="&#x2117;" horiz-adv-x="830" 
d="M414 -14q-151 0 -256 107t-105 257q0 149 106 256.5t257 107.5t256 -107t105 -257q0 -149 -106 -256.5t-257 -107.5zM414 26q136 0 228.5 95.5t92.5 230.5q0 134 -92 228t-227 94q-136 0 -228.5 -95.5t-92.5 -230.5q0 -134 92 -228t227 -94zM273 164v385h165
q74 0 117.5 -36.5t43.5 -101.5t-46 -101t-119 -36h-53v-110h-108zM381 358h49q29 0 45 13.5t16 37.5q0 50 -61 50h-49v-101z" />
    <glyph glyph-name="trademark" unicode="&#x2122;" horiz-adv-x="695" 
d="M108 392v233h-92v75h270v-75h-92v-233h-86zM334 392v308h91l73 -119l74 119h90v-308h-85v180l-78 -122h-3l-78 122v-180h-84z" />
    <glyph glyph-name="partialdiff" unicode="&#x2202;" 
d="M0 0v700h500v-700h-500zM81 49h339l-170 255zM49 96l171 254l-171 254v-508zM450 96v508l-171 -254zM250 395l170 255h-339z" />
    <glyph glyph-name="Delta" unicode="&#x2206;" horiz-adv-x="760" 
d="M6 0l284 700h180l284 -700h-748zM284 170h196l-98 293z" />
    <glyph glyph-name="product" unicode="&#x220f;" 
d="M0 0v700h500v-700h-500zM81 49h339l-170 255zM49 96l171 254l-171 254v-508zM450 96v508l-171 -254zM250 395l170 255h-339z" />
    <glyph glyph-name="summation" unicode="&#x2211;" 
d="M0 0v700h500v-700h-500zM81 49h339l-170 255zM49 96l171 254l-171 254v-508zM450 96v508l-171 -254zM250 395l170 255h-339z" />
    <glyph glyph-name="minus" unicode="&#x2212;" horiz-adv-x="640" 
d="M74 269v167h491v-167h-491z" />
    <glyph glyph-name="radical" unicode="&#x221a;" horiz-adv-x="596" 
d="M282 -128l-179 351h-106v118h175l96 -185l268 642h134z" />
    <glyph glyph-name="infinity" unicode="&#x221e;" horiz-adv-x="889" 
d="M253 135q-96 0 -152 62t-56 159q0 95 54 154.5t149 59.5q64 0 107 -31.5t89 -94.5q44 63 87.5 94.5t109.5 31.5q95 0 149 -59.5t54 -154.5q0 -96 -54 -158.5t-149 -62.5q-108 0 -197 118q-42 -57 -86.5 -87.5t-104.5 -30.5zM250 273q60 0 115 78q-59 82 -116 82
q-33 0 -52.5 -23.5t-19.5 -57.5q0 -35 19.5 -57t53.5 -22zM639 273q35 0 54 22.5t19 57.5q0 34 -21 57t-55 23q-54 0 -113 -82q55 -78 116 -78z" />
    <glyph glyph-name="integral" unicode="&#x222b;" 
d="M0 0v700h500v-700h-500zM81 49h339l-170 255zM49 96l171 254l-171 254v-508zM450 96v508l-171 -254zM250 395l170 255h-339z" />
    <glyph glyph-name="approxequal" unicode="&#x2248;" horiz-adv-x="640" 
d="M135 122l-99 26q9 73 50.5 131.5t105.5 58.5q41 0 127 -29.5t111 -29.5q49 0 67 53l99 -25q-11 -75 -50.5 -133t-105.5 -58q-39 0 -131 30t-111 30q-21 0 -38.5 -16t-24.5 -38zM135 373l-99 26q9 73 50.5 131.5t105.5 58.5q41 0 127 -29.5t111 -29.5q49 0 67 53l99 -25
q-11 -75 -50.5 -133t-105.5 -58q-39 0 -131 30t-111 30q-21 0 -38.5 -16t-24.5 -38z" />
    <glyph glyph-name="notequal" unicode="&#x2260;" horiz-adv-x="639" 
d="M230 -11l-138 68l38 77h-56v167h138l50 102h-188v167h270l72 145l137 -68l-38 -77h50v-167h-132l-50 -102h182v-167h-264z" />
    <glyph glyph-name="lessequal" unicode="&#x2264;" horiz-adv-x="640" 
d="M76 -16v157h491v-157h-491zM566 165l-489 168v177l489 168v-177l-327 -79l327 -79v-178z" />
    <glyph glyph-name="greaterequal" unicode="&#x2265;" horiz-adv-x="640" 
d="M77 -16v157h491v-157h-491zM78 165v178l327 79l-327 79v177l489 -168v-177z" />
    <glyph glyph-name="lozenge" unicode="&#x25ca;" horiz-adv-x="640" 
d="M248 -35l-194 391l196 391h140l196 -391l-196 -391h-142zM320 125l104 231l-104 231l-105 -231z" />
    <glyph glyph-name="cyrBreve" unicode="&#xf6d1;" 
d="M250 585q-72 0 -118.5 40t-57.5 113l106 19q22 -60 70 -60q49 0 71 60l106 -19q-11 -73 -57.5 -113t-119.5 -40z" />
    <glyph glyph-name="cyrbreve" unicode="&#xf6d4;" 
d="M250 585q-68 0 -111.5 39t-53.5 110l99 18q20 -58 66 -58t66 58l99 -18q-10 -71 -53.5 -110t-111.5 -39z" />
    <glyph glyph-name="apple" unicode="&#xf8ff;" 
d="M0 0v700h500v-700h-500zM81 49h339l-170 255zM49 96l171 254l-171 254v-508zM450 96v508l-171 -254zM250 395l170 255h-339z" />
    <glyph glyph-name="ff" unicode="&#xfb00;" horiz-adv-x="808" 
d="M85 0v389h-63v149h63v12q0 94 46 140q47 47 141 47q74 0 124 -15v-134q-35 11 -71 11q-54 0 -54 -51v-13h124v-146h-121v-389h-189zM489 0v389h-64v146h64v15q0 94 46 140q46 47 141 47q74 0 124 -15v-134q-35 11 -71 11q-54 0 -54 -51v-13h124v-146h-121v-389h-189z" />
    <glyph glyph-name="nbspace" horiz-adv-x="277" 
 />
    </font>
</defs>
</svg>
